<?xml version="1.0" standalone="no"?>
<!DOCTYPE svg PUBLIC "-//W3C//DTD SVG 1.1//EN" "http://www.w3.org/Graphics/SVG/1.1/DTD/svg11.dtd" >
<svg xmlns="http://www.w3.org/2000/svg" xmlns:xlink="http://www.w3.org/1999/xlink" version="1.1">
<metadata>
Created by FontForge 20161003 at Sat Dec 16 23:41:09 2017
 By www-data
Copyright (c) 2018 by www.fontiran.com (Moslem Ebrahimi). All rights reserved.
</metadata>
<defs>
<font id="IRANSansDN-Light" horiz-adv-x="0" >
  <font-face 
    font-family="IRANSansDN Light"
    font-weight="300"
    font-stretch="normal"
    units-per-em="2300"
    panose-1="2 11 5 6 3 8 4 2 2 4"
    ascent="1840"
    descent="-460"
    x-height="1215"
    cap-height="1635"
    bbox="-1097 -1188 3098 2693.75"
    underline-thickness="100"
    underline-position="-650"
    unicode-range="U+001D-FEFF"
  />
<missing-glyph horiz-adv-x="1229" 
d="M102 -362v1806h1024v-1806h-1024zM217 -248h795v1577h-795v-1577z" />
    <glyph glyph-name="uni06440627.isol" unicode="&#xfedf;&#xfe8e;" horiz-adv-x="1264" arabic-form="isolated" 
d="M935 131q-2 11 -6 24q-5 18 -14 39q-24 57 -71 136q-63 -63 -153 -126q-36 -26 -82 -55l-83 -52l-9 -5q284 -25 418 39zM640 -72q-227 1 -358 48q-45 16 -52 63q-6 48 33 75q39 29 90 61l45 29l45 28q227 140 314 236q-52 77 -117 165q-127 174 -272 347
q-132 157 -219 244q-23 24 -23 56q0 33 23 56q24 23 56 23q33 0 56 -23q91 -91 226 -252q149 -178 280 -356q46 -63 87 -121q143 281 44 829q-6 33 13 60q19 26 51 32t59 -13q27 -18 33 -51q111 -617 -70 -948q-15 -29 -33 -56q26 -42 47 -80q105 -187 94 -280
q-7 -63 -58 -94q-71 -44 -188 -63q-89 -15 -200 -15h-6z" />
    <glyph glyph-name="uni06440627.fina" unicode="&#xfee0;&#xfe8e;" horiz-adv-x="1399" arabic-form="final" 
d="M557 185q-28 0 -50 18q-23 18 -28 47q-78 439 -295 934q-13 30 -1 61q12 30 42 43q29 13 60 2q31 -12 44 -42q225 -512 306 -970q6 -33 -13 -60q-19 -26 -51 -32zM1399 177q33 0 56 -24q24 -23 24 -55q0 -33 -24 -56q-23 -24 -56 -24q-81 0 -151 37q-93 49 -156 157
q-23 38 -42 84q-38 -74 -95 -133q-206 -211 -623 -211q-33 0 -56 23t-23 56t23 56t56 23q350 0 509 163q135 139 129 401q-3 117 -81 728l-7 56q-4 33 16 59t52 30q33 4 59 -16t30 -53l7 -56q79 -617 82 -742q6 -75 19 -143q17 -95 44 -166q74 -194 208 -194z" />
    <glyph glyph-name="uni06440623.isol" unicode="&#xfedf;&#xfe84;" horiz-adv-x="1270" arabic-form="isolated" 
d="M935 131q-2 11 -6 24q-5 18 -14 39q-24 57 -71 136q-63 -63 -153 -126q-36 -26 -82 -55l-83 -52l-9 -5q284 -25 418 39zM640 -72q-227 1 -358 48q-45 16 -52 63q-6 48 33 75q39 29 90 61l45 29l45 28q227 140 314 236q-52 77 -117 165q-127 174 -272 347
q-132 157 -219 244q-23 24 -23 56q0 33 23 56q24 23 56 23q33 0 56 -23q91 -91 226 -252q149 -178 280 -356q46 -63 87 -121q143 281 44 829q-6 33 13 60q19 26 51 32t59 -13q27 -18 33 -51q111 -617 -70 -948q-15 -29 -33 -56q26 -42 47 -80q105 -187 94 -280
q-7 -63 -58 -94q-71 -44 -188 -63q-89 -15 -200 -15h-6zM9 1440q-9 16 -4 33q4 17 20 26l172 99q-25 7 -46 20q-46 28 -71 79q-25 52 -20 107q11 112 113 170q91 52 198 21q17 -5 26 -20q9 -16 4 -33q-5 -18 -21 -26q-16 -9 -33 -4q-72 20 -131 -14q-63 -35 -69 -102
q-3 -31 11 -60q13 -29 38 -44q24 -15 58 -16q13 -1 26 0q11 1 22 4q27 5 61 19l31 14l29 14q16 8 33 2q17 -5 25 -21q8 -15 3 -32t-20 -26l-396 -226q-10 -6 -21 -6q-26 0 -38 22z" />
    <glyph glyph-name="uni06440623.fina" unicode="&#xfee0;&#xfe84;" horiz-adv-x="1399" arabic-form="final" 
d="M557 185q-28 0 -50 18q-23 18 -28 47q-78 439 -295 934q-13 30 -1 61q12 30 42 43q29 13 60 2q31 -12 44 -42q225 -512 306 -970q6 -33 -13 -60q-19 -26 -51 -32zM1399 177q33 0 56 -24q24 -23 24 -55q0 -33 -24 -56q-23 -24 -56 -24q-81 0 -151 37q-93 49 -156 157
q-23 38 -42 84q-38 -74 -95 -133q-206 -211 -623 -211q-33 0 -56 23t-23 56t23 56t56 23q350 0 509 163q135 139 129 401q-3 117 -81 728l-7 56q-4 33 16 59t52 30q33 4 59 -16t30 -53l7 -56q79 -617 82 -742q6 -75 19 -143q17 -95 44 -166q74 -194 208 -194zM9 1440
q-9 16 -4 33q4 17 20 26l172 99q-25 7 -46 20q-46 28 -71 79q-25 52 -20 107q11 112 113 170q91 52 198 21q17 -5 26 -20q9 -16 4 -33q-5 -18 -21 -26q-16 -9 -33 -4q-72 20 -131 -14q-63 -35 -69 -102q-3 -31 11 -60q13 -29 38 -44q24 -15 58 -16q13 -1 26 0q11 1 22 4
q27 5 61 19l31 14l29 14q16 8 33 2q17 -5 25 -21q8 -15 3 -32t-20 -26l-396 -226q-10 -6 -21 -6q-26 0 -38 22z" />
    <glyph glyph-name="uni06440625.isol" unicode="&#xfedf;&#xfe88;" horiz-adv-x="1270" arabic-form="isolated" 
d="M935 131q-2 11 -6 24q-5 18 -14 39q-24 57 -71 136q-63 -63 -153 -126q-36 -26 -82 -55l-83 -52l-9 -5q284 -25 418 39zM640 -72q-227 1 -358 48q-45 16 -52 63q-6 48 33 75q39 29 90 61l45 29l45 28q227 140 314 236q-52 77 -117 165q-127 174 -272 347
q-132 157 -219 244q-23 24 -23 56q0 33 23 56q24 23 56 23q33 0 56 -23q91 -91 226 -252q149 -178 280 -356q46 -63 87 -121q143 281 44 829q-6 33 13 60q19 26 51 32t59 -13q27 -18 33 -51q111 -617 -70 -948q-15 -29 -33 -56q26 -42 47 -80q105 -187 94 -280
q-7 -63 -58 -94q-71 -44 -188 -63q-89 -15 -200 -15h-6zM144 -726q-9 16 -4 33q4 17 20 26l172 99q-25 7 -46 20q-46 28 -71 79q-25 52 -20 107q11 112 113 170q91 52 198 21q17 -5 26 -20q9 -16 4 -33q-5 -18 -21 -26q-16 -9 -33 -4q-72 20 -131 -14q-63 -35 -69 -102
q-3 -31 11 -60q13 -29 38 -44q24 -15 58 -16q13 -1 26 0q11 1 22 4q27 5 61 19l31 14l29 14q16 8 33 2q17 -5 25 -21q8 -15 3 -32t-20 -26l-396 -226q-10 -6 -21 -6q-26 0 -38 22z" />
    <glyph glyph-name="uni06440625.fina" unicode="&#xfee0;&#xfe88;" horiz-adv-x="1399" arabic-form="final" 
d="M557 185q-28 0 -50 18q-23 18 -28 47q-78 439 -295 934q-13 30 -1 61q12 30 42 43q29 13 60 2q31 -12 44 -42q225 -512 306 -970q6 -33 -13 -60q-19 -26 -51 -32zM1399 177q33 0 56 -24q24 -23 24 -55q0 -33 -24 -56q-23 -24 -56 -24q-81 0 -151 37q-93 49 -156 157
q-23 38 -42 84q-38 -74 -95 -133q-206 -211 -623 -211q-33 0 -56 23t-23 56t23 56t56 23q350 0 509 163q135 139 129 401q-3 117 -81 728l-7 56q-4 33 16 59t52 30q33 4 59 -16t30 -53l7 -56q79 -617 82 -742q6 -75 19 -143q17 -95 44 -166q74 -194 208 -194zM144 -726
q-9 16 -4 33q4 17 20 26l172 99q-25 7 -46 20q-46 28 -71 79q-25 52 -20 107q11 112 113 170q91 52 198 21q17 -5 26 -20q9 -16 4 -33q-5 -18 -21 -26q-16 -9 -33 -4q-72 20 -131 -14q-63 -35 -69 -102q-3 -31 11 -60q13 -29 38 -44q24 -15 58 -16q13 -1 26 0q11 1 22 4
q27 5 61 19l31 14l29 14q16 8 33 2q17 -5 25 -21q8 -15 3 -32t-20 -26l-396 -226q-10 -6 -21 -6q-26 0 -38 22z" />
    <glyph glyph-name="uni06440622.isol" unicode="&#xfedf;&#xfe82;" horiz-adv-x="1341" arabic-form="isolated" 
d="M1006 131q-2 11 -6 24q-5 18 -14 39q-24 57 -71 136q-63 -63 -153 -126q-36 -26 -82 -55l-83 -52l-9 -5q284 -25 418 39zM711 -72q-227 1 -358 48q-45 16 -52 63q-6 48 33 75q39 29 90 61l45 29l45 28q227 140 314 236q-52 77 -117 165q-127 174 -272 347
q-132 157 -219 244q-23 24 -23 56q0 33 23 56q24 23 56 23q33 0 56 -23q91 -91 226 -252q149 -178 280 -356q46 -63 87 -121q143 281 44 829q-6 33 13 60q19 26 51 32t59 -13q27 -18 33 -51q111 -617 -70 -948q-15 -29 -33 -56q26 -42 47 -80q105 -187 94 -280
q-7 -63 -58 -94q-71 -44 -188 -63q-89 -15 -200 -15h-6zM47 1433q-27 18 -33 50q-7 33 11 60l10 14l10 15q12 18 24 32q29 36 61 60q85 64 198 44q34 -6 79 -19l41 -12l41 -14l49 -16q27 -8 48 -14q52 -14 85 -16q115 -6 194 104q19 27 52 32q32 5 59 -14q26 -19 31 -52
q6 -32 -14 -58q-130 -181 -330 -170q-47 3 -110 19q-25 7 -57 17l-57 18q-99 33 -138 39q-43 8 -72 -11q-28 -19 -72 -86q-23 -35 -66 -35q-24 0 -44 13z" />
    <glyph glyph-name="uni06440622.fina" unicode="&#xfee0;&#xfe82;" horiz-adv-x="1399" arabic-form="final" 
d="M557 185q-28 0 -50 18q-23 18 -28 47q-78 439 -295 934q-13 30 -1 61q12 30 42 43q29 13 60 2q31 -12 44 -42q225 -512 306 -970q6 -33 -13 -60q-19 -26 -51 -32zM1399 177q33 0 56 -24q24 -23 24 -55q0 -33 -24 -56q-23 -24 -56 -24q-81 0 -151 37q-93 49 -156 157
q-23 38 -42 84q-38 -74 -95 -133q-206 -211 -623 -211q-33 0 -56 23t-23 56t23 56t56 23q350 0 509 163q135 139 129 401q-3 117 -81 728l-7 56q-4 33 16 59t52 30q33 4 59 -16t30 -53l7 -56q79 -617 82 -742q6 -75 19 -143q17 -95 44 -166q74 -194 208 -194zM36 1433
q-27 18 -33 50q-7 33 11 60l10 14l10 15q12 18 24 32q29 36 61 60q85 64 198 44q34 -6 79 -19l41 -12l41 -14l49 -16q27 -8 48 -14q52 -14 85 -16q115 -6 194 104q19 27 52 32q32 5 59 -14q26 -19 31 -52q6 -32 -14 -58q-130 -181 -330 -170q-47 3 -110 19q-25 7 -57 17
l-57 18q-99 33 -138 39q-43 8 -72 -11q-28 -19 -72 -86q-23 -35 -66 -35q-24 0 -44 13z" />
    <glyph glyph-name="uni06440671.isol" unicode="&#xfedf;&#xfb51;" horiz-adv-x="1270" 
d="M935 131q-2 11 -6 24q-5 18 -14 39q-24 57 -71 136q-63 -63 -153 -126q-36 -26 -82 -55l-83 -52l-9 -5q284 -25 418 39zM640 -72q-227 1 -358 48q-45 16 -52 63q-6 48 33 75q39 29 90 61l45 29l45 28q227 140 314 236q-52 77 -117 165q-127 174 -272 347
q-132 157 -219 244q-23 24 -23 56q0 33 23 56q24 23 56 23q33 0 56 -23q91 -91 226 -252q149 -178 280 -356q46 -63 87 -121q143 281 44 829q-6 33 13 60q19 26 51 32t59 -13q27 -18 33 -51q111 -617 -70 -948q-15 -29 -33 -56q26 -42 47 -80q105 -187 94 -280
q-7 -63 -58 -94q-71 -44 -188 -63q-89 -15 -200 -15h-6zM465 1545q30 0 54 6q33 8 54 25q19 16 26 38q8 23 1 41q-6 16 -22 25q-16 8 -41 7q-79 -3 -142 -80q-17 -21 -33 -48q53 -15 103 -14zM254 1411q-17 7 -25 23t-2 33l16 41q-33 11 -64 15q-32 4 -68 -20
q-11 -7 -21 -17l-5 -5l-2 -2l-1 -1q-11 -13 -29 -15q-18 -1 -32 10q-14 12 -15 30q-2 18 10 31v1l1 1q2 1 3 3l10 10q18 16 37 29q61 39 123 31q42 -5 89 -21q22 42 49 74q88 108 206 112q48 2 85 -17q44 -24 62 -70q18 -45 3 -94q-15 -50 -56 -84q-61 -50 -162 -51
q-70 -1 -141 21l-16 -41q-10 -29 -41 -29q-7 0 -14 2z" />
    <glyph glyph-name="uni06440671.fina" unicode="&#xfee0;&#xfb51;" horiz-adv-x="1399" 
d="M557 185q-28 0 -50 18q-23 18 -28 47q-78 439 -295 934q-13 30 -1 61q12 30 42 43q29 13 60 2q31 -12 44 -42q225 -512 306 -970q6 -33 -13 -60q-19 -26 -51 -32zM1399 177q33 0 56 -24q24 -23 24 -55q0 -33 -24 -56q-23 -24 -56 -24q-81 0 -151 37q-93 49 -156 157
q-23 38 -42 84q-38 -74 -95 -133q-206 -211 -623 -211q-33 0 -56 23t-23 56t23 56t56 23q350 0 509 163q135 139 129 401q-3 117 -81 728l-7 56q-4 33 16 59t52 30q33 4 59 -16t30 -53l7 -56q79 -617 82 -742q6 -75 19 -143q17 -95 44 -166q74 -194 208 -194zM465 1545
q30 0 54 6q33 8 54 25q19 16 26 38q8 23 1 41q-6 16 -22 25q-16 8 -41 7q-79 -3 -142 -80q-17 -21 -33 -48q53 -15 103 -14zM254 1411q-17 7 -25 23t-2 33l16 41q-33 11 -64 15q-32 4 -68 -20q-11 -7 -21 -17l-5 -5l-2 -2l-1 -1q-11 -13 -29 -15q-18 -1 -32 10
q-14 12 -15 30q-2 18 10 31v1l1 1q2 1 3 3l10 10q18 16 37 29q61 39 123 31q42 -5 89 -21q22 42 49 74q88 108 206 112q48 2 85 -17q44 -24 62 -70q18 -45 3 -94q-15 -50 -56 -84q-61 -50 -162 -51q-70 -1 -141 21l-16 -41q-10 -29 -41 -29q-7 0 -14 2z" />
    <glyph glyph-name="allah" unicode="&#xfedf;&#xfee0;&#x651;&#x64e;&#xfeea;" horiz-adv-x="2052" arabic-form="isolated" 
d="M1291 1726q-18 1 -30 14q-12 14 -11 32q5 106 -16 206q-4 17 6 33q9 15 27 18q18 4 33 -6q15 -9 19 -27q23 -111 17 -229q-1 -17 -13 -29q-13 -12 -30 -12h-2zM1568 1511q16 -113 -60 -177q-44 -36 -102 -36q-29 0 -55 10q-36 14 -62 43q-22 -27 -49 -44q-41 -27 -88 -27
q-36 0 -66 16q-72 36 -83 124q-9 64 25 134q8 16 25 22t33 -2q16 -7 22 -24t-2 -34q-9 -19 -14 -38q-6 -25 -3 -47q5 -42 36 -58q33 -16 69 7q34 22 49 69q13 40 11 101q-1 18 11 31q13 13 31 14q18 0 31 -12t14 -30q2 -56 -7 -98q2 -5 3 -10q6 -41 45 -56q38 -15 70 12
q39 32 30 98q-7 48 -53 121q-10 16 -5 33q4 18 19 27q15 10 33 6q17 -4 27 -20q55 -88 65 -155zM1866 1042q70 -373 77 -532q12 -263 -86 -381q-84 -101 -236 -101q-158 0 -266 129l-10 -15q-80 -106 -223 -120q-18 -2 -35 -2q-117 0 -206 65q-93 67 -133 174
q-17 43 -28 100l-8 50l-8 51l-2 17q-2 16 -6 50l-3 31l-4 32q-6 36 -12 61q-18 65 -54 81q-39 17 -121 -29q-37 -21 -79 -54q-31 -24 -72 -60q-56 -50 -84 -109q-37 -79 -2 -137q35 -57 126 -66q67 -7 186 12q32 6 59 -13q26 -19 32 -52q5 -32 -14 -59q-19 -26 -51 -32
q-146 -24 -236 -13q-163 20 -237 140q-71 117 -19 257q40 106 135 190q47 42 83 70q50 38 95 64q151 85 263 36q90 -40 130 -149q15 -41 25 -95q3 -21 7 -46l2 -22l2 -21q4 -32 6 -45l2 -17q16 -116 33 -163q24 -66 80 -106q53 -39 127 -34q77 5 117 58q40 54 45 138
q-2 23 -3 46q0 11 3 23q-1 22 -5 69l-3 34l-2 35q-7 141 -21 332q-5 60 -9 118q-2 18 -3 34l-1 10v2v1q-3 33 18 58t54 27q33 3 58 -18t27 -54l1 -4v-9q2 -16 3 -34q5 -59 9 -119q14 -193 22 -335q1 -22 5 -65l2 -35l3 -35q2 -40 1 -72q14 -90 74 -146q56 -52 125 -52
q46 0 77 15q22 10 37 29q62 75 49 295q-6 97 -29 235q-8 55 -21 126l-24 126l-14 78l-14 77q-6 32 13 59t51 32q32 6 59 -13t33 -51l13 -76z" />
    <glyph glyph-name="riyal" unicode="&#x631;&#xfef3;&#xfe8e;&#x644;" horiz-adv-x="3181" arabic-form="isolated" 
d="M741 -633q-232 0 -383 119q-203 161 -207 449q-2 121 33 256q26 103 71 208q13 30 43 42q31 12 61 -1t42 -43q12 -31 -1 -61q-32 -75 -54 -150q-30 -104 -35 -197q-16 -251 145 -379q114 -90 305 -85q191 6 316 103q122 94 146 296q10 80 6 186q-2 43 -6 96l-3 47l-4 47
q-8 88 -11 129q-12 219 -44 653q-10 136 -21 278q-3 44 -6 84q-1 13 -2 24v6l-1 2v1q-2 33 19 57q22 25 54 28q33 2 58 -19t27 -54v-3q0 -3 1 -6q1 -11 2 -24q3 -40 6 -85q11 -142 21 -278q31 -435 44 -655q3 -39 10 -124l8 -102q5 -59 6 -107q4 -121 -8 -214
q-35 -257 -205 -388q-164 -127 -406 -136h-27zM2044 18q-33 0 -56 23t-23 56t23 56t56 23q185 0 271 19q121 27 169 105q37 62 11 205q-25 143 -102 303q-15 29 -4 60t40 45q30 15 61 4t45 -40q83 -173 114 -335q40 -209 -30 -324q-81 -132 -258 -175q-68 -17 -159 -22
q-36 -2 -80 -3h-78zM2358 -665q-15 29 -5 60q9 31 38 47q274 146 398 367q151 270 151 749q0 33 23 56q24 23 56 23q33 0 56 -23t23 -56q0 -505 -162 -807q-148 -277 -471 -449q-17 -9 -37 -9q-47 0 -70 42zM1986 19q-28 1 -52 4q-62 6 -110 25q-140 56 -178 220
q-19 80 -18 481v96v96q-1 109 -3 192q-6 212 -24 333q-5 32 15 58q19 27 51 32q33 4 59 -15t31 -52q20 -128 26 -347q2 -85 3 -197v-336q0 -76 1 -130q3 -133 13 -175q19 -82 79 -108q44 -19 154 -19q32 0 55 -23q24 -23 24 -56t-24 -56q-23 -23 -55 -23h-47zM1744 -406
q-11 29 -1 59t35 43q287 146 597 87q27 -5 43 -31q17 -26 12 -57q-4 -32 -27 -51q-23 -18 -50 -13q-270 51 -520 -76q-13 -7 -27 -7q-44 0 -62 46z" />
    <glyph glyph-name="yeye" unicode="&#xfef4;&#xfef4;" horiz-adv-x="1728" 
d="M1733 176q33 0 56 -23t23 -56t-23 -56t-56 -23q-83 0 -151 30q-87 39 -143 126q-11 -16 -23 -30q-68 -75 -190 -104q-90 -22 -344 -22q-33 0 -56 23t-23 56t23 56t56 23q350 0 416 70q68 54 45 247q-16 177 -18 197q-3 32 18 58q21 25 53 28q33 3 58 -18t28 -54
q2 -20 6 -65q18 -235 58 -330q55 -133 187 -133zM851 176q33 0 56 -23t23 -56t-23 -56t-56 -23q-83 0 -151 30q-87 39 -143 126q-11 -16 -23 -30q-68 -75 -190 -104q-90 -22 -344 -22q-33 0 -56 23t-23 56t23 56t56 23q350 0 416 70q68 54 45 247q-16 177 -18 197
q-3 32 18 58q21 25 53 28q33 3 58 -18t28 -54q2 -20 6 -65q18 -235 58 -330q55 -133 187 -133zM981 -417q-11 29 -1 59t35 43q287 146 597 87q27 -5 43 -31q17 -26 12 -57q-4 -32 -27 -51q-23 -18 -50 -13q-270 51 -520 -76q-13 -7 -27 -7q-44 0 -62 46zM38 -483
q-11 29 -1 59t35 43q287 146 597 87q27 -5 43 -31q17 -26 12 -57q-4 -32 -27 -51q-23 -18 -50 -13q-270 51 -520 -76q-13 -7 -27 -7q-44 0 -62 46z" />
    <glyph glyph-name="yeye1" unicode="&#xfef3;&#xfef4;" horiz-adv-x="1684" 
d="M891 18q-33 0 -56 23t-23 56t23 56t56 23q185 0 271 19q121 27 169 105q37 62 11 205q-25 143 -102 303q-15 29 -4 60t40 45q30 15 61 4t45 -40q83 -173 114 -335q40 -209 -30 -324q-81 -132 -258 -175q-68 -17 -159 -22q-36 -2 -80 -3h-78zM865 176q33 0 56 -23t23 -56
t-23 -56t-56 -23q-83 0 -151 30q-87 39 -143 126q-11 -16 -23 -30q-68 -75 -190 -104q-90 -22 -344 -22q-33 0 -56 23t-23 56t23 56t56 23q350 0 416 70q68 54 45 247q-16 177 -18 197q-3 32 18 58q21 25 53 28q33 3 58 -18t28 -54q2 -20 6 -65q18 -235 58 -330
q55 -133 187 -133zM896 -444q-11 29 -1 59t35 43q287 146 597 87q27 -5 43 -31q17 -26 12 -57q-4 -32 -27 -51q-23 -18 -50 -13q-270 51 -520 -76q-13 -7 -27 -7q-44 0 -62 46zM17 -498q-11 29 -1 59t35 43q287 146 597 87q27 -5 43 -31q17 -26 12 -57q-4 -32 -27 -51
q-23 -18 -50 -13q-270 51 -520 -76q-13 -7 -27 -7q-44 0 -62 46z" />
    <glyph glyph-name="uni0621" unicode="&#x621;" horiz-adv-x="1019" arabic-form="isolated" 
d="M133 -106q-12 21 -6 45t27 36q61 36 125 71q82 44 163 82q-165 79 -185 249q-12 99 37 184t142 128q93 44 199 18q105 -26 165 -108q15 -20 11 -44t-23 -39q-20 -14 -45 -11q-24 4 -38 24q-35 48 -99 63q-65 15 -120 -10q-58 -27 -88 -79t-23 -112q14 -124 153 -171
q43 -14 78 -11q28 2 92 22q54 19 105 33q23 6 44 -6q22 -12 28 -35q7 -24 -5 -45t-35 -28q-20 -6 -42 -13l-19 -6l-17 -5l-23 -8q-141 -48 -299 -125q-61 -31 -123 -65q-50 -27 -97 -55q-14 -8 -31 -8q-33 0 -51 29z" />
    <glyph glyph-name="uni0627" unicode="&#x627;" horiz-adv-x="536" arabic-form="isolated" 
d="M272 -19q-33 4 -53 30q-21 25 -17 58q37 340 21 720q-9 233 -56 714q-3 32 18 58q21 25 54 28q32 3 57 -18q26 -20 29 -53q91 -943 34 -1466q-3 -31 -26 -51q-22 -20 -52 -20h-9z" />
    <glyph glyph-name="uni0627.fina" unicode="&#x627;" horiz-adv-x="624" arabic-form="final" 
d="M585 19q-28 1 -52 4q-62 6 -110 25q-140 56 -178 220q-19 80 -18 481v96v96q-1 109 -3 192q-6 212 -24 333q-5 32 15 58q19 27 51 32q33 4 59 -15t31 -52q20 -128 26 -347q2 -85 3 -197v-336q0 -76 1 -130q3 -133 13 -175q19 -82 79 -108q44 -19 154 -19q32 0 55 -23
q24 -23 24 -56t-24 -56q-23 -23 -55 -23h-47z" />
    <glyph glyph-name="uni062D" unicode="&#x62d;" horiz-adv-x="1647" arabic-form="isolated" 
d="M724 -778q-233 4 -423 148q-212 159 -229 393q-17 241 116 431q115 163 334 281q243 130 593 198q-195 87 -317 130q-176 62 -272 62q-166 0 -216 -177q-9 -31 -38 -47q-28 -16 -60 -7q-31 9 -47 37q-16 29 -7 60q41 147 141 222q93 71 227 71q129 0 350 -81
q85 -31 195 -78q43 -18 95 -42l47 -20l46 -21q118 -53 167 -73q25 -11 38 -34q13 -24 9 -51q-4 -26 -23 -45t-46 -22q-83 -9 -166 -22q-106 -18 -205 -42q-256 -61 -436 -158q-393 -211 -367 -560q12 -166 170 -282q147 -109 327 -113q160 -3 318 55q178 64 278 184
q22 25 54 27q33 3 58 -18t28 -53q3 -33 -19 -58q-113 -135 -304 -215q-190 -80 -398 -80h-18z" />
    <glyph glyph-name="uni062D.init" unicode="&#x62d;" horiz-adv-x="1619" arabic-form="initial" 
d="M-58 41q-23 23 -23 56t23 56t56 23q346 0 679 90q395 107 633 311q-95 28 -176 51q-109 30 -199 52q-182 44 -291 56q-40 5 -68 5q-20 -1 -32 -3q-96 -21 -132 -69q-29 -37 -59 -158q-8 -32 -36 -48q-28 -17 -60 -9t-49 36t-9 60q39 152 88 217q71 93 224 125
q50 11 133 3q122 -11 329 -62q117 -28 266 -70q54 -16 115 -34q23 -7 50 -14l22 -7l20 -6q26 -8 39 -11q42 -13 53 -55q12 -42 -17 -74q-254 -281 -726 -426q-385 -118 -797 -118q-33 0 -56 23z" />
    <glyph glyph-name="uni062D.medi" unicode="&#x62d;" horiz-adv-x="1701" arabic-form="medial" 
d="M1702 177q33 0 56 -24q23 -23 23 -55q0 -33 -23 -56q-23 -24 -56 -24q-209 0 -357 68q-148 67 -220 194q-155 -79 -336 -136q-399 -127 -795 -126q-34 -1 -57 22t-23 56t23 56t56 23q331 0 675 98q387 110 632 305q-94 28 -175 50q-106 29 -195 51q-182 44 -291 56
q-40 5 -68 5q-20 -1 -32 -3q-96 -21 -132 -69q-29 -37 -59 -158q-8 -32 -36 -48q-28 -17 -60 -9t-49 36t-9 60q39 152 88 217q71 93 224 125q50 11 133 3q122 -11 329 -62q117 -28 266 -70q54 -16 115 -34q23 -7 50 -14l22 -7l20 -6q26 -8 39 -11q43 -13 54 -56t-20 -75
q-106 -109 -252 -201q58 -101 193 -146q104 -35 247 -35z" />
    <glyph glyph-name="uni062D.fina" unicode="&#x62d;" horiz-adv-x="1702" arabic-form="final" 
d="M1703 176q33 0 56 -23t23 -56q0 -32 -23 -56q-23 -23 -56 -23q-267 0 -403 129q-129 121 -149 356q-284 -63 -479 -168q-393 -211 -367 -560q12 -166 170 -282q147 -109 327 -113q160 -3 318 55q178 64 278 184q22 25 54 27q33 3 58 -18t28 -53q3 -33 -19 -58
q-113 -135 -304 -215q-190 -80 -398 -80h-18q-233 4 -423 148q-212 159 -229 393q-17 241 116 431q115 163 334 281q243 130 593 198q-195 87 -317 130q-176 62 -272 62q-166 0 -216 -177q-9 -31 -38 -47q-28 -16 -60 -7q-31 9 -47 37q-16 29 -7 60q41 147 141 222
q93 71 227 71q129 0 350 -81q85 -31 195 -78q43 -18 95 -42l47 -20l46 -21q118 -53 167 -73q25 -11 38 -34q13 -24 9 -51q-4 -26 -23 -45t-46 -22q-86 -9 -172 -23q14 -207 122 -289q89 -69 274 -69z" />
    <glyph glyph-name="uni062F" unicode="&#x62f;" horiz-adv-x="1127" arabic-form="isolated" 
d="M188 68q-31 10 -46 38q-16 29 -6 61q9 31 38 46q29 16 60 6q227 -68 404 -30q172 38 226 169q10 23 -12 83q-26 73 -89 164q-144 206 -358 358q-27 19 -33 51q-5 32 14 59t51 32q32 6 59 -13q237 -168 396 -396q75 -107 108 -198q44 -120 10 -201q-86 -207 -338 -262
q-76 -17 -164 -17q-155 0 -320 50z" />
    <glyph glyph-name="uni0631" unicode="&#x631;" horiz-adv-x="887" arabic-form="isolated" 
d="M15 -665q-15 29 -5 60q9 31 38 47q274 146 398 367q151 270 151 749q0 33 23 56q24 23 56 23q33 0 56 -23t23 -56q0 -505 -162 -807q-148 -277 -471 -449q-17 -9 -37 -9q-47 0 -70 42z" />
    <glyph glyph-name="uni0631.fina" unicode="&#x631;" horiz-adv-x="961" arabic-form="final" 
d="M18 -682q-18 28 -11 60q6 32 33 50q8 5 24 16l16 9l16 11q20 13 37 25q45 32 84 65q106 90 181 200q212 312 175 775q-3 33 18 58t54 28q32 2 57 -19t28 -53q21 -237 106 -321q31 -30 70 -40q14 -4 31 -5l14 -1h12q33 0 56 -23t23 -56t-23 -56t-56 -23q-154 0 -250 105
q-46 -257 -184 -458q-86 -127 -206 -229q-45 -38 -96 -74q-19 -13 -41 -28l-19 -12l-17 -11q-16 -10 -22 -15q-20 -13 -44 -13q-42 0 -66 35z" />
    <glyph glyph-name="uni0633" unicode="&#x633;" horiz-adv-x="2692" arabic-form="isolated" 
d="M495 -595q-140 55 -236 155q-172 179 -162 444q8 231 203 535q17 28 49 35t60 -10q27 -18 34 -50t-10 -60q-171 -268 -178 -456q-8 -198 118 -329q155 -161 422 -161q126 0 240 51q135 60 209 175q186 289 -63 829q-14 30 -3 61q12 30 41 44q30 14 61 2q30 -11 44 -40
l6 -13l6 -13q8 -16 14 -29l34 -68q45 -86 89 -149q125 -180 241 -180q102 0 133 77q28 70 29 292v51q1 33 24 55q23 23 56 23v0q33 0 56 -23t23 -56q-3 -285 92 -381q36 -37 90 -37q64 0 104 24q14 8 24 19q4 4 7 8l3 4l2 3q49 72 30 227q-16 130 -71 274q-12 31 2 61
q13 30 43 41q31 12 61 -1q30 -14 42 -44l20 -56q12 -37 22 -74q27 -96 38 -182q26 -216 -57 -336q-36 -53 -93 -84q-74 -42 -177 -42q-120 0 -203 84q-22 22 -40 50q-79 -135 -260 -135q-124 0 -239 97q3 -32 4 -64q7 -234 -101 -404q-98 -153 -274 -232q-148 -67 -309 -67
q-159 0 -300 55z" />
    <glyph glyph-name="uni0633.init" unicode="&#x633;" horiz-adv-x="1658" arabic-form="initial" 
d="M397 84q-28 34 -44 80q-141 -146 -349 -146q-33 0 -56 23t-23 56q0 32 23 56q23 23 56 23q169 0 270 139q38 51 64 120q20 51 31 106q4 21 7 33q5 32 32 51q26 19 58 14q33 -5 52 -32t14 -59q-4 -22 -9 -44l-3 -16l-4 -18l-3 -19q-5 -22 -8 -41q-8 -49 -10 -86
q-7 -101 25 -140l3 -4l5 -5q7 -6 17 -10q28 -14 74 -14q41 0 100 60q66 68 113 171q46 103 51 191l1 27q0 32 23 55t55 23h1q32 0 55 -22q23 -23 24 -55q0 -16 -1 -33l-1 -30v-28q-5 -152 25 -241q35 -104 139 -104q72 0 114 24q15 8 25 18q4 4 8 9l4 6q83 120 -68 514
q-11 31 2 61q13 29 44 41t60 -2q30 -13 42 -44q80 -209 100 -349q28 -198 -49 -310q-87 -126 -282 -126q-98 0 -175 55q-76 54 -111 148q-40 -62 -86 -109q-106 -108 -213 -108q-147 0 -222 91z" />
    <glyph glyph-name="uni0633.medi" unicode="&#x633;" horiz-adv-x="1889" arabic-form="medial" 
d="M432 103q-38 46 -57 116q-19 -24 -39 -46q-148 -156 -336 -155q-33 0 -56 23t-23 56t23 56t56 23q122 -1 225 111t154 300q9 31 36 47q28 17 60 9q31 -8 48 -36q17 -27 10 -59q-25 -107 -19 -206q7 -98 41 -141q22 -27 59 -27q86 0 166 93q103 118 147 336q6 32 33 50
t59 12q31 -5 50 -32q19 -26 13 -58q-18 -115 -5 -211q12 -97 53 -144q38 -45 107 -45q57 0 96 42q50 54 72 168q19 100 11 205q-2 31 18 56q20 24 52 28q31 4 57 -15q25 -19 30 -51q37 -224 89 -310q72 -122 229 -122q33 0 56 -23t23 -56q0 -32 -23 -56q-23 -23 -56 -23
q-248 0 -365 199l-5 7q-29 -68 -72 -115q-86 -92 -212 -92q-143 0 -228 100q-39 46 -62 109q-22 -34 -47 -63q-128 -147 -286 -147q-113 0 -182 87z" />
    <glyph glyph-name="uni0633.fina" unicode="&#x633;" horiz-adv-x="2889" arabic-form="final" 
d="M523 -597q-140 55 -236 155q-172 179 -162 444q8 230 194 520q17 28 49 35t60 -10q28 -18 35 -50t-11 -60q-162 -254 -169 -441q-8 -198 118 -329q155 -161 422 -161q41 0 83 6q59 8 111 26q143 49 223 166q189 275 -25 834q-12 30 1 59q12 30 42 42q29 13 59 1
q30 -11 43 -40l23 -51l22 -52q67 -160 113 -222q63 -87 149 -99q92 -13 144 31q40 34 65 107q34 95 37 248q1 33 25 55q24 23 56 22q33 -1 55 -24t22 -55v-2q-6 -270 78 -356q31 -32 81 -32q58 0 98 44q51 56 72 171q18 101 7 205q-3 33 17 58q21 25 53 29t58 -16
q25 -20 29 -52q38 -278 158 -379q42 -35 93 -48q19 -4 39 -5q8 -1 17 -1h13q33 0 56 -23q23 -24 23 -56q0 -33 -23 -56t-56 -23q-238 0 -365 212q-29 -73 -74 -122q-86 -96 -215 -96q-117 0 -195 80q-30 31 -53 75q-30 -47 -69 -80q-106 -90 -268 -67q-90 12 -162 66
q2 -39 2 -75q-4 -235 -115 -397q-94 -137 -253 -206q-136 -60 -294 -60q-159 0 -300 55z" />
    <glyph glyph-name="uni0635" unicode="&#x635;" horiz-adv-x="2916" arabic-form="isolated" 
d="M2198 152q169 14 296 91q150 91 150 238q0 111 -95 169q-37 22 -84 33q-40 10 -78 10h-1q-205 0 -380 -154q-137 -121 -250 -329q173 -81 442 -58zM466 -552q-137 73 -215 209q-95 168 -79 388q17 215 136 414q17 28 48 36q32 8 60 -9q28 -16 36 -48t-8 -60
q-98 -164 -113 -339t58 -304q114 -202 395 -202q21 0 42 1q29 2 57 5q76 9 143 29q192 57 282 194q171 258 -45 766q-13 30 -2 59q11 30 40 44q28 13 58 4q30 -10 46 -37q115 -209 219 -301q108 198 242 327q233 227 520 227h1q167 0 285 -94q130 -104 130 -276
q0 -236 -226 -373q-93 -57 -213 -87q-43 -12 -88 -19q-33 -5 -63 -8q-434 -36 -680 173q39 -294 -92 -493q-106 -160 -309 -237q-90 -35 -191 -50q-77 -12 -156 -12q-180 0 -318 73z" />
    <glyph glyph-name="uni0635.init" unicode="&#x635;" horiz-adv-x="1920" arabic-form="initial" 
d="M973 150q44 -5 93 -6q19 -1 40 -1h43q60 0 133 14q90 17 166 50q204 90 237 269q6 30 -5 67q-12 44 -44 80q-34 39 -85 61q-66 29 -156 25q-197 -9 -388 -185q-144 -132 -240 -326q87 -36 206 -48zM562 -145q-32 9 -48 38q-16 28 -7 60q27 94 60 178q-27 22 -49 46
q-35 37 -61 80q-16 -29 -35 -54q-138 -185 -419 -185q-33 0 -56 23t-23 56t23 56t56 23q151 0 237 66q125 94 139 331q0 29 2 58q3 32 27 54q23 21 55 20q33 -1 55 -25q22 -23 21 -55q0 -29 -1 -56q0 -182 95 -284l2 -2q106 208 265 354q233 215 488 227q236 11 368 -140
q52 -60 74 -135q23 -75 11 -144q-45 -246 -299 -372q-110 -54 -242 -77q-47 -8 -93 -12l-34 -2h-72q-24 0 -45 1q-57 2 -107 7q-138 15 -244 60q-25 -67 -45 -140q-8 -26 -29 -42t-48 -16q-10 0 -21 3z" />
    <glyph glyph-name="uni0635.medi" unicode="&#x635;" horiz-adv-x="1962" arabic-form="medial" 
d="M1403 701q-156 -12 -321 -123q-155 -104 -218 -223q-7 -13 -12 -26q-7 -17 -11 -32q-9 -40 5 -65q27 -47 142 -63q45 -7 100 -8q40 -1 92 1q64 12 131 31q53 15 100 35q60 25 107 56q120 80 136 189q14 95 -48 161q-63 68 -175 68q-14 0 -28 -1zM578 107q-89 69 -142 173
q-12 -23 -25 -44q-63 -99 -159 -153q-105 -59 -248 -65q-33 0 -56 23t-23 56t23 56t56 23q186 6 273 145q73 115 88 324q2 32 26 53q24 22 56 20q32 -1 54 -25q22 -23 22 -55q-6 -284 152 -406l8 -6q-17 94 41 203q84 157 274 283q199 132 393 147q208 15 331 -117
q114 -122 89 -292q-25 -163 -176 -277q175 3 333 3q33 0 56 -23t23 -56t-23 -56t-56 -23q-311 0 -725 -12q-7 0 -28 -1l-19 -1q-108 -19 -207 -19q-253 0 -411 122z" />
    <glyph glyph-name="uni0635.fina" unicode="&#x635;" horiz-adv-x="2868" arabic-form="final" 
d="M1986 169q374 -13 510 118q69 66 70 175q0 76 -47 140t-125 91q-93 33 -202 6q-42 -11 -84 -30q-33 -16 -65 -35q-190 -117 -303 -331q-18 -34 -26 -58q-3 -9 -4 -16l-1 -5v-4q11 -8 51 -18q15 -4 35 -9l18 -4l16 -3h2q21 -5 43 -8q53 -7 112 -9zM362 -549
q-135 73 -213 211q-100 177 -85 408q15 227 137 431q17 28 48 36q32 8 60 -9t36 -49q8 -31 -8 -60q-101 -167 -115 -355q-14 -187 64 -324q117 -205 387 -205q144 0 274 53q153 62 234 183q179 264 -7 760q-10 23 -18 46q-11 30 2 60q14 29 44 41q30 11 60 -2t42 -43l17 -44
q84 -201 240 -303q12 39 39 91q133 251 360 391q254 157 488 74q124 -44 200 -150q77 -105 76 -231q-1 -174 -115 -285h261q32 0 56 -23q23 -23 23 -56t-23 -56q-24 -23 -56 -23h-94q-303 1 -465 -8q-136 -7 -225 -7q-131 2 -234 18q-214 28 -371 128q-31 20 -61 44
q7 -63 6 -121q-3 -227 -114 -390q-107 -158 -301 -239q-89 -37 -187 -53q-75 -13 -151 -13q-175 0 -311 74z" />
    <glyph glyph-name="uni0637" unicode="&#x637;" horiz-adv-x="1816" arabic-form="isolated" 
d="M1475 371q123 117 96 257q-22 113 -110 145q-82 29 -200 -3q-109 -31 -186 -94q-192 -156 -376 -425q-7 -32 -34 -50l-8 -13q297 -34 525 28q180 49 293 155zM1726 659q44 -227 -142 -403q-142 -133 -360 -193q-285 -77 -659 -22q-34 -57 -68 -119q-23 -41 -69 -41
q-21 0 -39 10q-28 16 -37 47q-9 32 7 61q20 37 41 73q-147 32 -292 80q-31 10 -45 40q-15 29 -5 60q11 31 40 46q29 14 60 4q165 -55 328 -87q31 50 63 97q105 593 17 1166q-4 33 15 59t52 31q32 5 58 -14q27 -20 32 -52q70 -458 22 -930q112 131 230 227q106 86 249 124
q69 19 134 21q86 3 157 -23q72 -26 123 -79q66 -71 88 -183z" />
    <glyph glyph-name="uni0637.init" unicode="&#x637;" horiz-adv-x="1576" arabic-form="initial" 
d="M860 218q458 98 458 354q0 96 -56 151q-56 56 -152 56q-125 0 -265 -102q-106 -77 -214 -208q-103 -125 -201 -291q274 7 430 40zM1110 937q162 0 264 -102t102 -263q0 -228 -211 -367q-138 -91 -372 -142q-190 -40 -551 -45q-31 -58 -58 -116q-21 -46 -72 -46
q-17 0 -33 7q-30 14 -41 45t3 60q11 25 23 50h-163q-33 0 -56 23t-23 56q0 32 23 56q23 23 56 23h246q47 85 96 163q-1 11 1 21q82 440 -20 1109q-5 32 14 59q20 26 52 31t59 -14q26 -20 31 -52q83 -547 56 -892q288 336 574 336z" />
    <glyph glyph-name="uni0637.medi" unicode="&#x637;" horiz-adv-x="1583" arabic-form="medial" 
d="M945 230q112 22 207 109q104 94 121 209q14 95 -48 161q-63 68 -176 68q-13 0 -27 -1q-148 -12 -316 -138q-156 -118 -229 -255q-55 -103 -28 -151q20 -35 93 -54q195 11 403 52zM1586 176q33 0 56 -23q23 -24 23 -56q0 -33 -23 -56t-56 -23q-326 0 -740 -12
q-8 -1 -28 -1l-22 -1l-25 -1q-28 -1 -53 -1q-84 0 -150 10q-20 3 -39 7q-123 -7 -359 -3h-44l-45 1q-51 1 -93 1q-33 0 -56 23t-23 56q0 32 23 56q23 23 56 23q43 0 95 -1h45l45 -1q86 -1 129 -2q-23 52 -19 115q5 79 54 170l15 26q45 406 -43 981q-5 32 15 59q19 26 51 31
q33 5 59 -15q26 -19 31 -51q73 -473 61 -795q240 221 484 240q207 16 331 -116q113 -122 88 -292q-25 -167 -164 -298q-32 -30 -68 -55q209 4 389 4z" />
    <glyph glyph-name="uni0637.fina" unicode="&#x637;" horiz-adv-x="1867" arabic-form="final" 
d="M1197 230q112 22 207 109q104 94 121 209q14 95 -48 161q-63 68 -176 68q-13 0 -27 -1q-148 -12 -315 -138q-157 -118 -230 -255q-55 -103 -28 -151q18 -31 77 -50q193 4 419 48zM1870 176q33 0 56 -23q23 -24 23 -56q0 -33 -23 -56t-56 -23q-358 0 -772 -12
q-8 -1 -28 -1l-22 -1l-24 -1q-29 -1 -54 -1q-84 0 -149 10q-33 4 -63 12h-13q-358 0 -656 136q-29 14 -41 44q-11 31 2 61q14 30 45 41q30 11 60 -2q183 -84 391 -110q-37 113 43 263l15 26q46 418 -43 1001q-5 32 15 58q19 27 52 32q32 5 58 -15q27 -19 32 -52
q72 -474 60 -814q240 221 484 240q208 16 331 -116q114 -122 88 -292q-24 -167 -164 -298q-32 -30 -68 -55q232 4 421 4z" />
    <glyph glyph-name="uni0639" unicode="&#x639;" horiz-adv-x="1532" arabic-form="isolated" 
d="M283 -488q-167 171 -144 409q38 413 444 622q48 25 101 47q-115 61 -173 169q-57 108 -40 232q20 143 122 241q99 95 241 114q140 18 259 -27q117 -45 208 -151q22 -25 19 -57q-2 -33 -27 -54q-25 -22 -57 -20q-33 3 -54 28q-130 150 -327 124q-92 -12 -153 -72
q-62 -60 -74 -148q-13 -89 38 -160q42 -59 116 -91q103 -45 275 -24q99 18 209 30q33 3 58 -17q26 -21 29 -53q4 -32 -16 -58q-21 -26 -53 -29l-55 -8l-54 -8l-47 -7l-47 -6q-252 -46 -426 -135q-328 -170 -359 -497q-15 -165 100 -284q77 -78 195 -116t256 -28
q146 11 303 87q49 24 94 52q14 9 26 17q4 3 7 5l2 1l1 1q26 19 58 15q33 -5 52 -31q20 -27 15 -59t-31 -52l-2 -1l-2 -2q-4 -3 -9 -6q-15 -11 -32 -21q-53 -34 -111 -62q-184 -89 -360 -102q-33 -2 -66 -2q-319 0 -509 194z" />
    <glyph glyph-name="uni0639.init" unicode="&#x639;" horiz-adv-x="1138" arabic-form="initial" 
d="M-52 41q-23 23 -23 56t23 56t56 23q202 0 309 3q-37 31 -65 69q-87 114 -83 257q4 135 90 243q87 109 224 149q145 43 285 -2q97 -32 202 -111q26 -20 30 -52q5 -32 -15 -59q-20 -26 -52 -30q-33 -5 -59 15q-95 72 -177 93t-168 -5q-88 -26 -144 -94t-58 -152
q-2 -86 50 -156t142 -101q98 -34 232 -19q52 5 118 19l58 13l57 14q31 8 59 -9q28 -16 36 -47q8 -32 -8 -60t-47 -37q-234 -65 -483 -85q-175 -14 -533 -14q-33 0 -56 23z" />
    <glyph glyph-name="uni0639.medi" unicode="&#x639;" horiz-adv-x="1169" arabic-form="medial" 
d="M621 333q143 93 228 210q65 89 40 146q-12 29 -53 45q-16 7 -35 11q-15 4 -31 6q-237 29 -471 -89q160 -218 322 -329zM619 148q-34 -18 -69 -34q-219 -96 -551 -96q-33 0 -56 23t-23 56t23 56t56 23q286 0 467 74q-172 136 -348 394q-19 28 -12 62q7 33 37 51
q320 191 646 151q108 -14 176 -67q26 -21 45 -46q14 -20 24 -43q61 -139 -57 -302q-79 -110 -201 -202q172 -72 388 -72q33 0 56 -23t23 -56t-23 -56t-56 -23q-307 0 -545 130z" />
    <glyph glyph-name="uni0639.fina" unicode="&#x639;" horiz-adv-x="1357" arabic-form="final" 
d="M743 469l14 6l49 22q190 85 304 197q42 41 33 79q-4 16 -18 27q-12 9 -29 15q-71 25 -188 16q-41 -3 -87 -10l-34 -6l-14 -3l-12 -2q-141 -28 -265 -89q122 -143 247 -252zM421 -675q-181 106 -254 301q-77 205 11 397q102 220 410 373q-142 133 -276 298q-22 28 -16 63
t36 54q176 110 398 154q114 23 201 26q127 5 218 -27q123 -43 148 -156q13 -59 -7 -119t-69 -108q-74 -73 -180 -138q-42 -26 -87 -50q-36 -19 -72 -36l17 -12q124 -93 194 -122q108 -46 269 -46q33 0 56 -24q24 -23 24 -55q0 -33 -24 -56q-23 -24 -56 -24q-194 0 -333 60
q-86 37 -225 140l-31 24q-28 20 -55 42q-148 -69 -233 -133q-113 -86 -163 -194q-64 -137 -3 -285q56 -136 182 -210q149 -88 340 -73t381 128q29 17 60 9q32 -8 49 -37q17 -28 9 -59q-8 -32 -37 -49q-255 -152 -514 -152q-204 0 -368 96z" />
    <glyph glyph-name="uni0643.init" unicode="&#x643;" horiz-adv-x="1147" arabic-form="initial" 
d="M0 18q-33 0 -56 23t-23 56t23 56t56 23h41l46 1q53 0 97 3q111 7 190 27q176 47 240 181q64 137 -117 356q-157 191 -350 293q-29 16 -39 47t6 60q15 29 46 39q32 9 61 -6q91 -48 196 -134q119 -96 206 -202q240 -294 134 -520q-95 -202 -343 -267q-92 -24 -214 -31
q-48 -3 -106 -4l-50 -1h-44zM-59 1282q-11 31 4 60q14 30 45 40q642 223 992 520q25 21 58 18q32 -3 54 -28q21 -25 18 -57q-3 -33 -28 -54q-234 -199 -513 -336q-196 -96 -529 -212q-13 -4 -26 -4q-56 0 -75 53z" />
    <glyph glyph-name="uni0643.medi" unicode="&#x643;" horiz-adv-x="1125" arabic-form="medial" 
d="M1125 176q33 0 56 -23t23 -56t-23 -56t-56 -23q-272 -6 -501 287q-14 -44 -39 -82q-70 -106 -222 -157q-144 -48 -364 -48q-33 0 -56 23t-23 56q0 32 23 56q23 23 56 23q365 0 454 134q63 96 -16 281l-4 12q-63 114 -186 365l-53 109q-15 30 -4 61q10 31 39 45
q30 15 61 4q31 -10 45 -40l54 -109q216 -440 333 -601q195 -267 403 -261zM59 1226q-56 0 -74 53q-11 31 3 61q14 29 45 40q612 212 1040 574q25 21 58 19q32 -3 54 -28q21 -25 18 -58q-3 -32 -28 -53q-450 -382 -1090 -604q-12 -4 -26 -4z" />
    <glyph glyph-name="uni0643" unicode="&#x643;" horiz-adv-x="2024" arabic-form="isolated" 
d="M774 522q-9 15 -4 33q4 17 20 26l172 98q-25 8 -46 21q-46 28 -71 79q-25 52 -20 107q11 112 113 170q91 52 198 21q17 -5 26 -21q9 -15 4 -33q-5 -17 -21 -26q-16 -8 -33 -3q-72 20 -131 -14q-63 -36 -69 -102q-3 -31 11 -60t38 -44t58 -17q13 0 27 1q10 1 21 3
q27 6 61 20l31 14l29 14q16 8 33 2q17 -5 25 -21q8 -15 3 -32t-20 -26l-396 -226q-10 -6 -21 -6q-26 0 -38 22zM155 275q-114 163 -24 406q11 31 41 45q29 13 60 2t45 -41q13 -30 2 -61q-61 -165 5 -261q55 -79 201 -126q192 -61 526 -61q435 0 583 150q109 109 107 340
q-4 410 -78 796q-6 32 12 59q19 27 51 34q32 6 59 -13q27 -18 33 -50q77 -401 81 -825q3 -296 -153 -453q-194 -196 -695 -196q-679 0 -856 255z" />
    <glyph glyph-name="uni0643.fina" unicode="&#x643;" horiz-adv-x="2076" arabic-form="final" 
d="M2076 176q33 0 56 -23t23 -56t-23 -56t-56 -23q-165 0 -261 96q-53 54 -81 133q-39 -48 -90 -86q-193 -141 -610 -141q-679 0 -856 255q-114 163 -24 406q11 31 41 45q29 13 60 2t45 -41q13 -30 2 -61q-61 -165 5 -261q55 -79 201 -126q192 -61 526 -61q365 0 516 111
q146 106 146 369q0 8 2 17q-5 248 4 743l1 48q0 33 24 55q24 23 56 22q33 0 56 -24q23 -23 22 -56l-1 -48q-10 -545 -2 -816v-57v-19v-19v-42q2 -49 8 -88q15 -101 61 -148q50 -50 149 -50zM774 522q-9 15 -4 33q4 17 20 26l172 98q-25 8 -46 21q-46 28 -71 79
q-25 52 -20 107q11 112 113 170q91 52 198 21q17 -5 26 -21q9 -15 4 -33q-5 -17 -21 -26q-16 -8 -33 -3q-72 20 -131 -14q-63 -36 -69 -102q-3 -31 11 -60t38 -44t58 -17q13 0 27 1q10 1 21 3q27 6 61 20l31 14l29 14q16 8 33 2q17 -5 25 -21q8 -15 3 -32t-20 -26l-396 -226
q-10 -6 -21 -6q-26 0 -38 22z" />
    <glyph glyph-name="uni0644" unicode="&#x644;" horiz-adv-x="1483" arabic-form="isolated" 
d="M711 -633q-232 0 -383 119q-203 161 -207 449q-2 121 33 256q26 103 71 208q13 30 43 42q31 12 61 -1t42 -43q12 -31 -1 -61q-32 -75 -54 -150q-30 -104 -35 -197q-16 -251 145 -379q114 -90 305 -85q191 6 316 103q122 94 146 296q10 80 6 186q-2 43 -6 96l-3 47l-4 47
q-8 88 -11 129q-12 219 -44 653q-10 136 -21 278q-3 44 -6 84q-1 13 -2 24v6l-1 2v1q-2 33 19 57q22 25 54 28q33 2 58 -19t27 -54v-3q0 -3 1 -6q1 -11 2 -24q3 -40 6 -85q11 -142 21 -278q31 -435 44 -655q3 -39 10 -124l8 -102q5 -59 6 -107q4 -121 -8 -214
q-35 -257 -205 -388q-164 -127 -406 -136h-27z" />
    <glyph glyph-name="uni0644.init" unicode="&#x644;" horiz-adv-x="569" arabic-form="initial" 
d="M-55 41q-23 23 -23 56t23 56t56 23q38 0 72 4q45 5 81 16q94 29 125 96q51 112 36 495q-14 366 -75 678q-6 33 13 60q18 27 50 33t59 -12q28 -19 34 -51q61 -319 77 -691q18 -428 -51 -578q-46 -101 -154 -154q-109 -54 -267 -54q-33 0 -56 23z" />
    <glyph glyph-name="uni0644.medi" unicode="&#x644;" horiz-adv-x="674" arabic-form="medial" 
d="M677 176q33 0 56 -23t23 -56t-23 -56t-56 -23q-158 -2 -254 94q-21 22 -39 47q-16 -23 -34 -43q-64 -65 -165 -86q-40 -9 -91 -11l-46 -2h-46q-33 0 -56 23t-23 56t23 56t56 23q96 0 136 6q65 11 98 45q64 67 71 258v57q1 37 0 51q-7 276 3 824l1 48q0 33 24 55
q23 23 56 22q33 0 56 -24q22 -23 22 -56l-1 -48q-10 -545 -3 -816v-1q2 -59 1 -112q1 -86 13 -142q17 -78 56 -118q49 -50 142 -48z" />
    <glyph glyph-name="uni0644.fina" unicode="&#x644;" horiz-adv-x="1532" arabic-form="final" 
d="M1532 176q33 0 56 -23t23 -56t-23 -56t-56 -23q-134 0 -224 52q2 -102 -9 -184q-35 -257 -205 -388q-164 -127 -406 -136h-27q-232 0 -383 119q-203 161 -207 449q-2 121 33 256q26 103 71 208q13 30 43 42q31 12 61 -1t42 -43q12 -31 -1 -61q-32 -75 -54 -150
q-30 -104 -35 -197q-16 -251 145 -379q114 -90 305 -85q191 6 316 103q122 94 146 296q10 80 6 186q-2 43 -6 96l-3 47l-4 47q-8 88 -11 129q-12 219 -44 653q-10 136 -21 278q-3 44 -6 84q-1 13 -2 24v6l-1 2v1q-2 33 19 57q22 25 54 28q33 2 58 -19t27 -54v-5l1 -4
q1 -11 2 -24q3 -40 6 -84q11 -142 21 -278q31 -435 44 -655q12 -150 80 -209q55 -49 169 -49z" />
    <glyph glyph-name="uni0645" unicode="&#x645;" horiz-adv-x="1237" arabic-form="isolated" 
d="M587 289q246 -110 345 -62l3 2l3 1q5 3 9 6q11 9 19 22q23 39 22 114q-1 106 -44 203q-52 119 -135 119v0q-56 0 -105 -71q-64 -92 -109 -300q-3 -17 -14 -31zM244 -770q-29 0 -51 19t-27 48q-16 105 -29 215q-19 152 -30 293q-29 386 2 641q5 47 49 64q43 18 79 -12
q79 -64 205 -136q17 79 36 139q25 83 57 146q58 115 140 166q62 39 134 39v0q174 0 269 -190q66 -132 68 -288q2 -122 -46 -200q-37 -59 -100 -89q-165 -80 -478 60q-135 60 -267 146q-12 -238 18 -569q11 -118 27 -240q6 -47 13 -93q5 -35 10 -68q5 -32 -15 -59
q-19 -26 -52 -31z" />
    <glyph glyph-name="uni0645.init" unicode="&#x645;" horiz-adv-x="1165" arabic-form="initial" 
d="M450 340q13 -8 22 -20q52 -66 114 -110q73 -53 137 -57q70 -4 129 57q58 59 56 179q0 38 -12 82q-15 54 -41 95q-57 91 -157 91q-63 0 -111 -60q-34 -43 -95 -172l-20 -42zM714 -5q-106 6 -212 80q-40 28 -79 65q-30 29 -58 61q-17 -22 -34 -41q-132 -142 -331 -142
q-33 0 -56 24q-23 23 -23 55q0 33 23 56q23 24 56 24q128 0 209 84q59 61 140 232l28 57q16 32 29 57q35 63 71 104q91 104 221 104q187 0 291 -165q75 -118 77 -259q3 -186 -101 -292q-102 -104 -233 -104h-18z" />
    <glyph glyph-name="uni0645.medi" unicode="&#x645;" horiz-adv-x="1214" arabic-form="medial" 
d="M823 219q58 59 56 167q0 41 -11 86q-13 53 -37 93q-53 89 -149 89q-63 0 -110 -60q-33 -43 -91 -171l-21 -44l-22 -45q10 -7 17 -17q119 -151 236 -158q70 -4 132 60zM1214 176q33 0 56 -22q24 -23 25 -56q0 -32 -22 -56q-23 -24 -56 -24h-7q-139 0 -229 96
q-10 10 -20 23q-12 -15 -25 -29q-105 -107 -237 -107h-17q-173 10 -329 192q-14 -19 -29 -35q-129 -142 -328 -140q-35 1 -58 24t-23 56q0 32 23 56q23 23 56 23q128 -3 207 81q58 61 136 231q69 151 117 210q92 113 228 113q187 0 285 -166q40 -68 58 -154q7 -30 10 -61
l2 -24v-17q6 -102 51 -158t122 -56h4z" />
    <glyph glyph-name="uni0645.fina" unicode="&#x645;" horiz-adv-x="1275" arabic-form="final" 
d="M793 191l46 -4q47 4 79 23q37 23 54 87q16 64 6 143q-11 83 -48 145q-36 62 -80 75q-43 12 -111 -28t-127 -111q-56 -68 -80 -135q-23 -68 -5 -105l2 -2l2 -3q3 -4 8 -8q12 -12 34 -23q30 -12 58 -22q65 -20 162 -32zM230 -813q-29 0 -51 19q-22 18 -27 47
q-15 92 -28 192q-18 138 -30 274q-30 372 -7 680q3 47 46 66t81 -9q67 -52 149 -102q16 133 127 267q82 100 180 154q121 66 223 37q102 -30 170 -140q55 -91 72 -211q22 -168 -42 -285q32 -1 68 0h117q33 0 56 -23t23 -56t-23 -56t-56 -23h-95q-23 -1 -43 -1q-51 0 -94 1
q-115 2 -207 10q-112 -6 -256 44q-45 14 -80 31q-130 56 -266 144q-8 -274 23 -595q11 -114 26 -227q6 -44 12 -85q5 -32 10 -61q5 -32 -14 -59t-51 -32z" />
    <glyph glyph-name="uni0647" unicode="&#x647;" horiz-adv-x="990" arabic-form="isolated" 
d="M232 111q-113 98 -113 256q0 97 52 199q20 39 48 82q11 16 25 35l12 17l11 15q21 28 28 39q18 27 50 33q32 7 59 -11q28 -18 34 -51q6 -32 -12 -59q-9 -14 -32 -45l-9 -13l-10 -13l-20 -28q-22 -34 -38 -62q-40 -75 -40 -138q0 -91 65 -142q58 -46 144 -46q29 0 65 8
q45 10 82 28q99 52 99 152q0 129 -140 310q-127 165 -256 238q-28 17 -37 48q-9 32 8 60q16 29 47 37q32 9 60 -7q156 -89 303 -278q73 -94 116 -185q57 -120 57 -223q0 -175 -152 -273q-114 -73 -252 -73q-151 0 -254 90z" />
    <glyph glyph-name="uni0647.init" unicode="&#x647;" horiz-adv-x="1522" arabic-form="initial" 
d="M464 710q-86 -77 -102 -178q-15 -100 46 -186q47 -66 139 -117q177 54 228 173q62 146 13 256q-40 89 -131 108q-20 4 -40 4q-85 0 -153 -60zM1064 155q82 20 134 61q69 54 81 140q13 98 -60 198q-70 96 -216 188q-60 39 -132 75q37 -41 61 -94q78 -173 -12 -383
q-48 -114 -160 -187q165 -33 304 2zM649 18q-63 18 -119 43l-1 -1q-113 -26 -266 -36q-104 -6 -267 -6q-33 0 -56 23t-23 56t23 56t56 23q211 0 339 13q-31 31 -56 65q-97 137 -73 299q23 159 153 275q111 99 254 100q-57 21 -115 40q-44 14 -85 26q-32 8 -48 37t-7 60
q9 32 38 48q28 16 60 7q54 -16 113 -35q80 -26 157 -56q209 -82 362 -180q171 -108 259 -228q110 -151 88 -312q-18 -134 -115 -223q-85 -78 -218 -111q-86 -21 -187 -21q-135 0 -266 38z" />
    <glyph glyph-name="uni0647.medi" unicode="&#x647;" horiz-adv-x="1056" arabic-form="medial" 
d="M493 704q-116 -64 -175 -262q-40 -132 -35 -259q74 8 132 24q186 52 228 206q21 76 2 169q-20 93 -63 127l-5 4l-8 4q-9 4 -21 4q-24 0 -55 -17zM658 -588q-155 57 -304 236q-148 177 -203 370q-27 -1 -60 -1h-57q-34 1 -50 1q-33 0 -56 23t-23 56q0 32 23 56
q23 23 56 23h25l27 -1h89q-6 155 41 312q78 260 251 355q84 48 163 35q30 -5 58 -18q22 -11 42 -26q86 -68 118 -211q30 -134 -2 -251q-67 -240 -338 -316q-65 -18 -145 -28q75 -213 249 -369q-4 144 74 272q69 116 182 181q112 65 242 65q32 0 56 -23q23 -24 23 -56
q0 -33 -23 -56q-24 -23 -56 -23q-88 0 -164 -45q-77 -45 -125 -124q-47 -78 -51 -165q-4 -86 36 -161q25 -48 -11 -89q-24 -27 -59 -27q-15 0 -28 5z" />
    <glyph glyph-name="uni0647.fina" unicode="&#x647;" horiz-adv-x="1133" arabic-form="final" 
d="M786 243q-36 77 -58 187q-8 43 -16 98l-12 96q-14 113 -23 155q-6 24 -12 40q-2 7 -5 12q-2 4 -4 7q-5 -2 -13 -5q-153 -70 -282 -237q-126 -163 -105 -262q10 -51 82 -75q54 -18 139 -19q33 0 56 -24q23 -23 22 -56q0 -33 -24 -56q-23 -22 -56 -22q-158 2 -252 56
q-100 57 -122 163q-21 99 32 221q20 47 50 96q24 38 52 75q153 198 343 284q49 22 93 20q33 -2 61 -18q61 -34 89 -127q17 -58 36 -209q29 -242 74 -336q63 -131 203 -131q33 0 56 -23t23 -56t-23 -56t-56 -23q-242 0 -348 225z" />
    <glyph glyph-name="uni0648" unicode="&#x648;" horiz-adv-x="1078" arabic-form="isolated" 
d="M147 -647q-22 17 -28 45q-7 32 10 59q18 28 50 35q247 56 428 241q200 204 200 464q0 151 -77 299q-92 174 -227 174q-72 0 -127 -56q-83 -85 -80 -234q2 -85 69 -142q109 -91 300 -62q32 5 58 -15q27 -19 32 -52q5 -32 -15 -58q-19 -27 -52 -32q-124 -19 -236 7
q-111 26 -189 91q-122 103 -125 260q-5 215 125 348q102 103 240 103q107 0 200 -63t158 -181q53 -96 81 -209q23 -96 23 -178q0 -317 -233 -564q-213 -227 -518 -295q-9 -2 -18 -2q-27 0 -49 17z" />
    <glyph glyph-name="uni0648.fina" unicode="&#x648;" horiz-adv-x="1043" arabic-form="final" 
d="M390 614q-84 -85 -81 -234l1 -10l1 -13q1 -16 5 -30q10 -38 39 -67q82 -83 304 -83q34 0 161 -1l1 21q0 151 -78 299q-91 174 -227 174q-71 0 -126 -56zM161 -647q-22 17 -28 45q-8 32 10 59q17 28 49 35q200 45 365 182q177 147 237 344h-135q-288 0 -416 130
q-49 49 -72 117q-18 52 -20 112q-4 215 126 348q101 103 239 103q108 0 201 -63q92 -63 158 -181q53 -96 80 -209q24 -96 24 -178l-1 -21h62q33 0 56 -23q23 -24 23 -56q0 -33 -23 -56t-56 -23h-82q-50 -213 -212 -385q-213 -227 -519 -295q-9 -2 -17 -2q-28 0 -49 17z" />
    <glyph glyph-name="uni0649" unicode="&#x649;" horiz-adv-x="1793" arabic-form="isolated" 
d="M422 -608q-318 161 -333 524q-7 154 44 329q38 133 106 270q15 29 46 39q31 11 60 -4q30 -15 40 -46t-4 -60q-144 -288 -134 -521q11 -270 247 -390q202 -102 471 -43t404 236q27 35 40 62q5 10 8 18q3 6 3 11q-2 1 -5 3q-4 1 -9 3q-12 5 -29 9q-33 8 -117 19l-61 8
q-34 5 -61 10q-67 13 -113 34q-84 37 -120 103q-27 51 -26 115q3 133 67 261q64 129 177 230q113 102 247 154q135 51 260 41q33 -2 54 -27q22 -25 19 -58q-3 -32 -28 -54q-25 -21 -57 -18q-92 7 -197 -34q-105 -42 -192 -121q-186 -168 -192 -378q-1 -48 56 -72
q49 -20 187 -37q109 -14 155 -28l6 -1l6 -2q8 -3 15 -6q21 -7 38 -18q49 -28 68 -75q24 -59 -5 -133q-20 -51 -69 -115q-171 -225 -495 -296q-106 -23 -213 -23q-204 0 -364 81z" />
    <glyph glyph-name="uni0649.fina" unicode="&#x649;" horiz-adv-x="1715" arabic-form="final" 
d="M510 -596q-172 55 -275 162q-146 152 -136 386q4 99 39 246q13 58 34 131l36 128q18 59 26 86q8 32 37 48t60 7q32 -9 48 -37q16 -29 7 -61q-8 -27 -26 -88l-8 -28l-9 -29l-17 -61q-19 -68 -32 -122q-34 -141 -37 -227q-7 -166 92 -270q79 -81 220 -124q117 -36 239 -36
q237 0 424 91q77 36 121 81q44 44 44 84q0 26 -52 67q-29 23 -78 52l-45 25l-46 25l-90 50q-49 28 -82 53q-36 26 -54 46q-26 29 -29 61q-2 12 0 24q2 10 6 18q18 44 69 55q19 4 42 3h19l16 -2q41 -3 159 -22l52 -8q31 -5 57 -9q65 -9 120 -16q145 -17 256 -17q33 0 56 -23
t23 -56t-23 -56t-56 -23q-99 0 -219 12q-89 9 -258 41q179 -84 235 -136q80 -76 80 -164q0 -178 -238 -300q-223 -114 -509 -114q-154 0 -298 47z" />
    <glyph glyph-name="uni066E.init" unicode="&#x66e;" horiz-adv-x="715" 
d="M-2 18q-33 0 -56 23t-23 56t23 56t56 23q185 0 271 19q121 27 169 105q37 62 11 205q-25 143 -102 303q-15 29 -4 60t40 45q30 15 61 4t45 -40q83 -173 114 -335q40 -209 -30 -324q-81 -132 -258 -175q-68 -17 -159 -22q-36 -2 -80 -3h-78z" />
    <glyph glyph-name="uni066E.medi" unicode="&#x66e;" horiz-adv-x="748" 
d="M741 176q33 0 56 -23t23 -56t-23 -56t-56 -23q-83 0 -151 30q-87 39 -143 126q-11 -16 -23 -30q-68 -75 -190 -104q-90 -22 -237 -22q-33 0 -56 23t-23 56t23 56t56 23q243 0 309 74q62 69 44 243q-3 31 -7 69l-2 33l-3 32q-3 43 -5 63q-3 32 18 58q21 25 53 28
q33 3 58 -18t28 -54q2 -20 6 -65q18 -235 58 -330q55 -133 187 -133z" />
    <glyph glyph-name="uni066E.fina" unicode="&#x66e;" horiz-adv-x="2316" 
d="M462 54q-211 85 -289 246q-76 156 -8 361q24 74 64 144q34 59 70 100q21 25 54 27q32 2 57 -19q25 -22 27 -54q2 -33 -19 -58q-26 -30 -53 -77q-30 -54 -49 -110q-49 -145 -1 -246q53 -109 218 -171q144 -55 313 -55q416 0 652 123q235 123 354 404q12 27 38 39
q26 13 55 6q28 -7 45 -31t14 -53l-1 -10l-5 -47l-4 -49q-3 -56 0 -98q8 -111 60 -168q73 -82 258 -82q33 0 56 -23q24 -23 24 -56q0 -32 -24 -56q-23 -23 -56 -23q-255 0 -376 134q-70 78 -92 196q-111 -136 -267 -219q-273 -145 -731 -145q-209 0 -384 70z" />
    <glyph glyph-name="uni066F.init" unicode="&#x66f;" horiz-adv-x="932" 
d="M435 942q-48 -16 -88 -75q-39 -59 -53 -137q-17 -102 43 -151q56 -46 165 -49q100 -4 188 29q-1 94 -33 184q-34 94 -90 150q-53 53 -103 53q-15 0 -29 -4zM-56 41q-23 23 -23 56t23 56t56 23h71q45 1 84 3q103 5 185 20q224 43 303 164q7 10 13 22q-115 -24 -223 -8
q-120 17 -197 80q-55 45 -81 109q-35 83 -17 191q22 123 90 215q67 91 160 120q25 9 53 11q34 3 69 -3q90 -16 168 -95q132 -131 163 -353q32 -227 -65 -376q-111 -169 -380 -227q-91 -19 -204 -26q-76 -5 -192 -5q-33 0 -56 23z" />
    <glyph glyph-name="uni066F.medi" unicode="&#x66f;" horiz-adv-x="1001" 
d="M421 727q-42 -32 -72 -86q-37 -69 -39 -143q-1 -74 35 -128q51 -79 149 -124q94 45 146 123q37 56 37 139q0 82 -38 152q-7 15 -17 28q-13 18 -28 32q-40 38 -87 38q-43 0 -86 -31zM926 18q-60 1 -110 4q-125 6 -221 26q-53 12 -100 27q-109 -37 -262 -50q-60 -4 -134 -6
l-66 -1h-37q-33 0 -56 23t-23 56t23 56t56 23h3l51 1l81 1q91 3 161 12q-46 41 -80 93q-63 97 -59 221q3 111 57 212q51 94 130 147t167 53q83 0 154 -47t118 -134q59 -110 57 -235t-64 -219q-33 -50 -77 -90q74 -10 170 -13q37 -1 84 -2h53q32 0 56 -23q23 -23 23 -56
t-23 -56q-24 -23 -56 -23h-76z" />
    <glyph glyph-name="uni066F.fina" unicode="&#x66f;" horiz-adv-x="1570" 
d="M911 612q-83 -85 -79 -232q3 -102 75 -149q87 -56 306 -56h128q-9 166 -88 318q-92 176 -214 176q-73 0 -128 -57zM275 -435q-167 168 -167 409q0 287 168 495q20 25 53 29q32 3 58 -17q25 -21 29 -53q3 -33 -17 -59q-133 -164 -133 -395q0 -176 121 -297
q146 -146 396 -146q246 0 393 149q127 129 158 338h-120q-236 0 -361 64q-173 88 -178 294q-6 215 124 348q102 104 241 104q121 0 221 -85q80 -69 138 -186q48 -95 75 -205q22 -93 26 -176h68q33 0 56 -23t23 -56t-23 -56t-56 -23h-74q-34 -275 -205 -449
q-194 -196 -506 -196q-316 0 -508 192z" />
    <glyph glyph-name="uni06D2" unicode="&#x6d2;" horiz-adv-x="1655" arabic-form="isolated" 
d="M1100 -455q-537 0 -720 21q-227 26 -288 112q-19 28 -25 60q-7 43 10 90q59 166 268 257q210 91 534 91h128q33 0 56 -23t23 -56t-23 -56t-56 -23h-128q-263 0 -438 -66q-175 -65 -215 -177q-2 -4 -3 -7l6 -4q4 -3 9 -5q14 -7 36 -14q63 -17 176 -27q177 -15 650 -15h476
q32 0 56 -23q23 -23 23 -56t-23 -56q-24 -23 -56 -23h-476z" />
    <glyph glyph-name="uni06D2.fina" unicode="&#x6d2;" horiz-adv-x="1227" arabic-form="final" 
d="M352 -434q-226 26 -287 112q-19 28 -25 60q-8 43 9 90q59 166 269 257t533 91h376q33 0 56 -23t23 -56t-23 -56t-56 -23h-376q-262 0 -437 -66q-176 -65 -216 -177q-1 -4 -2 -7q2 -2 5 -4q4 -3 10 -5q14 -7 36 -14q63 -17 176 -27q177 -15 650 -15q32 0 56 -23
q23 -23 23 -56t-23 -56q-24 -23 -56 -23q-537 0 -721 21z" />
    <glyph glyph-name="uni06A9" unicode="&#x6a9;" horiz-adv-x="2285" arabic-form="isolated" 
d="M154 275q-114 163 -24 406q11 31 41 45q29 14 60 2q31 -11 45 -41q13 -30 2 -60q-61 -166 5 -261q55 -79 201 -126q192 -62 526 -62q133 0 217 5q125 8 217 28q217 48 255 167q44 138 -83 337q-112 175 -303 325q-26 20 -29 53q-4 32 16 58t53 30q32 3 58 -17
q226 -177 351 -385q151 -250 88 -449q-66 -206 -372 -274q-103 -22 -236 -30q-91 -6 -232 -6q-679 0 -856 255zM1113 1281q-11 31 3 60q14 30 45 40q643 223 993 519q25 22 57 19q33 -3 54 -28t19 -58q-3 -32 -28 -53q-234 -199 -513 -336q-196 -96 -530 -212q-13 -5 -26 -5
q-56 0 -74 54z" />
    <glyph glyph-name="uni06A9.fina" unicode="&#x6a9;" horiz-adv-x="2300" arabic-form="final" 
d="M1230 1232q-56 0 -75 53q-10 31 4 61q14 29 45 40q612 212 1040 574q25 21 58 19q32 -3 53 -28q22 -25 19 -58q-3 -32 -28 -53q-450 -382 -1090 -604q-13 -4 -26 -4zM2295 176q33 0 56 -23t23 -56t-23 -56t-56 -23q-278 0 -525 325q-12 -31 -31 -59q-101 -153 -358 -217
q-94 -24 -205 -35q-80 -7 -162 -7q-679 0 -856 255q-114 163 -24 406q11 31 41 44q29 14 60 3t45 -41q13 -30 2 -61q-61 -165 5 -261q55 -79 201 -126q192 -61 526 -61q217 0 376 50q159 51 217 138q58 88 2 223q-48 86 -103 196q-22 44 -48 98l-23 48l-23 48
q-40 83 -59 122q-14 30 -4 61q11 31 40 45q30 14 61 4q31 -11 45 -40q20 -40 60 -124l16 -35l18 -36q19 -40 35 -73q40 -83 75 -149q90 -169 171 -284q212 -299 425 -299z" />
    <glyph glyph-name="uni06AF" unicode="&#x6af;" horiz-adv-x="2285" arabic-form="isolated" 
d="M154 275q-114 163 -24 406q11 31 41 45q29 14 60 2q31 -11 45 -41q13 -30 2 -60q-61 -166 5 -261q55 -79 201 -126q192 -62 526 -62q133 0 217 5q125 8 217 28q217 48 255 167q44 138 -83 337q-112 175 -303 325q-26 20 -29 53q-4 32 16 58t53 30q32 3 58 -17
q226 -177 351 -385q151 -250 88 -449q-66 -206 -372 -274q-103 -22 -236 -30q-91 -6 -232 -6q-679 0 -856 255zM1113 1281q-11 31 3 60q14 30 45 40q643 223 993 519q25 22 57 19q33 -3 54 -28t19 -58q-3 -32 -28 -53q-234 -199 -513 -336q-196 -96 -530 -212q-13 -5 -26 -5
q-56 0 -74 54zM1211 1664q-4 11 -4 22q0 12 5 24q10 22 33 31q249 94 576 292q14 9 30 9q7 0 15 -2q24 -6 36 -27q9 -14 9 -30q0 -7 -2 -15q-6 -24 -27 -36q-336 -204 -594 -302q-11 -4 -22 -4q-40 0 -55 38z" />
    <glyph glyph-name="uni06AF.init" unicode="&#x6af;" horiz-adv-x="1147" arabic-form="initial" 
d="M0 18q-33 0 -56 23t-23 56t23 56t56 23h41l46 1q53 0 97 3q111 7 190 27q176 47 240 181q64 137 -117 356q-157 191 -350 293q-29 16 -39 47t6 60q15 29 46 39q32 9 61 -6q91 -48 196 -134q119 -96 206 -202q240 -294 134 -520q-95 -202 -343 -267q-92 -24 -214 -31
q-48 -3 -106 -4l-50 -1h-44zM-59 1282q-11 31 4 60q14 30 45 40q642 223 992 520q25 21 58 18q32 -3 54 -28q21 -25 18 -57q-3 -33 -28 -54q-234 -199 -513 -336q-196 -96 -529 -212q-13 -4 -26 -4q-56 0 -75 53zM51 1664q-4 11 -4 22q0 12 5 24q10 22 33 31q249 94 576 292
q14 9 30 9q7 0 15 -2q24 -6 36 -27q9 -14 9 -30q0 -7 -2 -15q-6 -24 -27 -36q-336 -204 -594 -302q-11 -4 -22 -4q-40 0 -55 38z" />
    <glyph glyph-name="uni06AF.medi" unicode="&#x6af;" horiz-adv-x="1125" arabic-form="medial" 
d="M1125 176q33 0 56 -23t23 -56t-23 -56t-56 -23q-272 -6 -501 287q-14 -44 -39 -82q-70 -106 -222 -157q-144 -48 -364 -48q-33 0 -56 23t-23 56q0 32 23 56q23 23 56 23q365 0 454 134q63 96 -16 281l-4 12q-63 114 -186 365l-53 109q-15 30 -4 61q10 31 39 45
q30 15 61 4q31 -10 45 -40l54 -109q216 -440 333 -601q195 -267 403 -261zM59 1226q-56 0 -74 53q-11 31 3 61q14 29 45 40q612 212 1040 574q25 21 58 19q32 -3 54 -28q21 -25 18 -58q-3 -32 -28 -53q-450 -382 -1090 -604q-12 -4 -26 -4zM103 1670q-4 11 -4 22q0 12 5 24
q10 22 33 31q249 94 576 292q14 9 30 9q7 0 15 -2q24 -6 36 -27q9 -14 9 -30q0 -7 -2 -15q-6 -24 -27 -36q-336 -204 -594 -302q-11 -4 -22 -4q-40 0 -55 38z" />
    <glyph glyph-name="uni06AF.fina" unicode="&#x6af;" horiz-adv-x="2300" arabic-form="final" 
d="M1230 1232q-56 0 -75 53q-10 31 4 61q14 29 45 40q612 212 1040 574q25 21 58 19q32 -3 53 -28q22 -25 19 -58q-3 -32 -28 -53q-450 -382 -1090 -604q-13 -4 -26 -4zM2295 176q33 0 56 -23t23 -56t-23 -56t-56 -23q-278 0 -525 325q-12 -31 -31 -59q-101 -153 -358 -217
q-94 -24 -205 -35q-80 -7 -162 -7q-679 0 -856 255q-114 163 -24 406q11 31 41 44q29 14 60 3t45 -41q13 -30 2 -61q-61 -165 5 -261q55 -79 201 -126q192 -61 526 -61q217 0 376 50q159 51 217 138q58 88 2 223q-48 86 -103 196q-22 44 -48 98l-23 48l-23 48
q-40 83 -59 122q-14 30 -4 61q11 31 40 45q30 14 61 4q31 -11 45 -40q20 -40 60 -124l16 -35l18 -36q19 -40 35 -73q40 -83 75 -149q90 -169 171 -284q212 -299 425 -299zM1279 1683q-4 11 -4 22q0 12 5 24q10 22 33 31q249 94 576 292q14 9 30 9q7 0 15 -2q24 -6 36 -27
q9 -14 9 -30q0 -7 -2 -15q-6 -24 -27 -36q-336 -204 -594 -302q-11 -4 -22 -4q-40 0 -55 38z" />
    <glyph glyph-name="uni06BA" unicode="&#x6ba;" horiz-adv-x="1630" arabic-form="isolated" 
d="M269 -464q-163 164 -163 400q0 131 51 274q50 143 132 245q21 25 54 29q32 3 58 -18q25 -20 29 -53q3 -32 -17 -58q-66 -81 -107 -198q-42 -117 -42 -221q0 -171 117 -288q147 -147 404 -147q324 0 456 182q91 126 93 341t-86 480q-10 32 5 61t46 39q31 11 60 -4t40 -46
q35 -106 57 -210q29 -133 35 -253q15 -310 -122 -500q-179 -248 -584 -248q-323 0 -516 193z" />
    <glyph glyph-name="uni06BA.fina" unicode="&#x6ba;" horiz-adv-x="1728" arabic-form="final" 
d="M1732 176q33 0 56 -23t23 -56t-23 -56t-56 -23q-81 0 -140 16q-82 22 -149 77q2 -27 3 -49q10 -281 -114 -464q-86 -127 -232 -194q-151 -70 -361 -70q-323 0 -516 193q-163 164 -163 400q0 131 51 274q50 143 132 245q21 25 54 29q32 3 58 -18q25 -20 29 -53
q3 -32 -17 -58q-66 -81 -107 -198q-42 -117 -42 -221q0 -171 117 -288q147 -147 404 -147q330 0 462 195q95 140 87 369q-9 215 -104 455l-1 2l-1 4l-1 3l-1 5v3l-1 4v19l2 8l1 3l2 8l2 3l2 4l1 3l2 3l3 3l4 6l6 6l3 2l3 3l9 6l8 4h1l3 1l4 2l3 1h4l8 2h15l4 -1h4l4 -1l3 -1
l4 -1l3 -2l4 -1l6 -4l4 -2l3 -2l3 -2l3 -3l3 -2l2 -3l3 -3l2 -3l3 -3l2 -4l2 -3l3 -6q114 -253 209 -335q70 -61 193 -61z" />
    <glyph glyph-name="uni062F.fina" unicode="&#x62f;" horiz-adv-x="1262" arabic-form="final" 
d="M1257 176q33 0 56 -23t23 -56t-23 -56t-56 -23q-88 0 -168 48q-91 55 -155 162q-34 -49 -81 -88q-113 -93 -269 -116q-42 -6 -87 -6q-126 0 -251 49q-31 12 -44 42t-1 60q11 31 41 44t61 1q136 -53 265 -32q108 18 184 80q53 44 77 100t15 111q-39 181 -82 387
q-13 64 -25 123l-5 20q-1 8 -3 15l-1 5l-1 4v3q-7 33 11 60t50 34t59 -11q28 -18 34 -50l2 -8l1 -5q2 -7 3 -15l4 -20q13 -59 26 -124q43 -205 82 -387q37 -178 125 -265q36 -36 77 -52q16 -6 32 -9q12 -2 24 -2z" />
    <glyph glyph-name="uni06C1.fina" unicode="&#x6c1;" horiz-adv-x="1347" arabic-form="final" 
d="M254 10q-21 17 -28 44q-40 160 1 326q42 166 148 272q159 157 369 102q115 -30 200 -131q34 -40 67 -96q14 -22 29 -50l27 -50q73 -137 119 -184q65 -67 161 -67q32 0 56 -23q23 -23 23 -56t-23 -56q-24 -23 -56 -23q-163 0 -275 115q-41 42 -80 105q-15 24 -33 57
l-31 58q-61 114 -96 158q-57 71 -128 90q-123 32 -217 -61q-77 -76 -107 -203q-31 -126 -1 -245q8 -31 -9 -59q-16 -29 -48 -37q-10 -2 -20 -2q-26 0 -48 16z" />
    <glyph glyph-name="uni0686" unicode="&#x686;" horiz-adv-x="1647" arabic-form="isolated" 
d="M724 -778q-233 4 -423 148q-212 159 -229 393q-17 241 116 431q115 163 334 281q243 130 593 198q-195 87 -317 130q-176 62 -272 62q-166 0 -216 -177q-9 -31 -38 -47q-28 -16 -60 -7q-31 9 -47 37q-16 29 -7 60q41 147 141 222q93 71 227 71q129 0 350 -81
q85 -31 195 -78q43 -18 95 -42l47 -20l46 -21q118 -53 167 -73q25 -11 38 -34q13 -24 9 -51q-4 -26 -23 -45t-46 -22q-83 -9 -166 -22q-106 -18 -205 -42q-256 -61 -436 -158q-393 -211 -367 -560q12 -166 170 -282q147 -109 327 -113q160 -3 318 55q178 64 278 184
q22 25 54 27q33 3 58 -18t28 -53q3 -33 -19 -58q-113 -135 -304 -215q-190 -80 -398 -80h-18zM1212 125q12 -29 1 -59q-10 -30 -36 -43q-292 -147 -607 -88q-29 6 -45 32q-17 26 -12 57q5 32 28 50q23 19 51 14q275 -52 529 76q14 7 28 7q45 0 63 -46zM911 -230q51 9 88 -28
q26 -25 29 -62t-18 -66q-5 -7 -11 -12q-26 -25 -63 -30q-36 -6 -68 9q-33 15 -52 47q-19 31 -17 67q2 42 38 64q23 14 51 14q11 0 23 -3z" />
    <glyph glyph-name="uni0686.fina" unicode="&#x686;" horiz-adv-x="1702" arabic-form="final" 
d="M1703 176q33 0 56 -23t23 -56q0 -32 -23 -56q-23 -23 -56 -23q-267 0 -403 129q-129 121 -149 356q-284 -63 -479 -168q-393 -211 -367 -560q12 -166 170 -282q147 -109 327 -113q160 -3 318 55q178 64 278 184q22 25 54 27q33 3 58 -18t28 -53q3 -33 -19 -58
q-113 -135 -304 -215q-190 -80 -398 -80h-18q-233 4 -423 148q-212 159 -229 393q-17 241 116 431q115 163 334 281q243 130 593 198q-195 87 -317 130q-176 62 -272 62q-166 0 -216 -177q-9 -31 -38 -47q-28 -16 -60 -7q-31 9 -47 37q-16 29 -7 60q41 147 141 222
q93 71 227 71q129 0 350 -81q85 -31 195 -78q43 -18 95 -42l47 -20l46 -21q118 -53 167 -73q25 -11 38 -34q13 -24 9 -51q-4 -26 -23 -45t-46 -22q-86 -9 -172 -23q14 -207 122 -289q89 -69 274 -69zM1216 75q12 -29 1 -59q-10 -30 -36 -43q-292 -147 -607 -88q-29 6 -45 32
q-17 26 -12 57q5 32 28 50q23 19 51 14q275 -52 529 76q14 7 28 7q45 0 63 -46zM915 -280q51 9 88 -28q26 -25 29 -62t-18 -66q-5 -7 -11 -12q-26 -25 -63 -30q-36 -6 -68 9q-33 15 -52 47q-19 31 -17 67q2 42 38 64q23 14 51 14q11 0 23 -3z" />
    <glyph glyph-name="uni0623" unicode="&#x623;" horiz-adv-x="530" arabic-form="isolated" 
d="M287 -29q-33 4 -53 27q-21 23 -17 52q37 307 21 650q-9 210 -56 643q-3 30 18 53q21 22 54 25q32 3 57 -16q26 -18 29 -48q91 -851 34 -1322q-3 -28 -26 -46q-22 -18 -52 -18h-9zM9 1484q-9 16 -4 33q4 17 20 26l172 99q-25 7 -46 20q-46 28 -71 79q-25 52 -20 107
q11 112 113 170q91 52 198 21q17 -5 26 -20q9 -16 4 -33q-5 -18 -21 -26q-16 -9 -33 -4q-72 20 -131 -14q-63 -35 -69 -102q-3 -31 11 -60q13 -29 38 -44q24 -15 58 -16q13 -1 26 0q11 1 22 4q27 5 61 19l31 14l29 14q16 8 33 2q17 -5 25 -21q8 -15 3 -32t-20 -26l-396 -226
q-10 -6 -21 -6q-26 0 -38 22z" />
    <glyph glyph-name="uni0623.fina" unicode="&#x623;" horiz-adv-x="640" arabic-form="final" 
d="M588 18q-28 1 -52 4q-62 6 -110 25q-140 56 -178 220q-19 80 -18 421v96v96q-1 109 -3 192q-6 182 -24 303q-5 32 15 58q19 27 51 32q33 4 59 -15t31 -52q20 -128 26 -317q2 -85 3 -197v-276q0 -76 1 -130q3 -133 13 -175q19 -82 79 -108q44 -19 154 -19q32 0 55 -23
q24 -23 24 -56t-24 -56q-23 -23 -55 -23h-47zM44 1484q-9 16 -4 33q4 17 20 26l172 99q-25 7 -46 20q-46 28 -71 79q-25 52 -20 107q11 112 113 170q91 52 198 21q17 -5 26 -20q9 -16 4 -33q-5 -18 -21 -26q-16 -9 -33 -4q-72 20 -131 -14q-63 -35 -69 -102q-3 -31 11 -60
q13 -29 38 -44q24 -15 58 -16q13 -1 26 0q11 1 22 4q27 5 61 19l31 14l29 14q16 8 33 2q17 -5 25 -21q8 -15 3 -32t-20 -26l-396 -226q-10 -6 -21 -6q-26 0 -38 22z" />
    <glyph glyph-name="uni0625" unicode="&#x625;" horiz-adv-x="509" arabic-form="isolated" 
d="M282 -29q-33 4 -53 27q-21 23 -17 52q37 307 21 650q-9 210 -56 643q-3 30 18 53q21 22 54 25q32 3 57 -16q26 -18 29 -48q91 -851 34 -1322q-3 -28 -26 -46q-22 -18 -52 -18h-9zM17 -686q-9 16 -4 33q4 17 20 26l172 99q-25 7 -46 20q-46 28 -71 79q-25 52 -20 107
q11 112 113 170q91 52 198 21q17 -5 26 -20q9 -16 4 -33q-5 -18 -21 -26q-16 -9 -33 -4q-72 20 -131 -14q-63 -35 -69 -102q-3 -31 11 -60q13 -29 38 -44q24 -15 58 -16q13 -1 26 0q11 1 22 4q27 5 61 19l31 14l29 14q16 8 33 2q17 -5 25 -21q8 -15 3 -32t-20 -26l-396 -226
q-10 -6 -21 -6q-26 0 -38 22z" />
    <glyph glyph-name="uni0625.fina" unicode="&#x625;" horiz-adv-x="640" arabic-form="final" 
d="M588 18q-28 1 -52 4q-62 6 -110 25q-140 56 -178 220q-19 80 -18 421v96v96q-1 109 -3 192q-6 182 -24 303q-5 32 15 58q19 27 51 32q33 4 59 -15t31 -52q20 -128 26 -317q2 -85 3 -197v-276q0 -76 1 -130q3 -133 13 -175q19 -82 79 -108q44 -19 154 -19q32 0 55 -23
q24 -23 24 -56t-24 -56q-23 -23 -55 -23h-47zM107 -686q-9 16 -4 33q4 17 20 26l172 99q-25 7 -46 20q-46 28 -71 79q-25 52 -20 107q11 112 113 170q91 52 198 21q17 -5 26 -20q9 -16 4 -33q-5 -18 -21 -26q-16 -9 -33 -4q-72 20 -131 -14q-63 -35 -69 -102q-3 -31 11 -60
q13 -29 38 -44q24 -15 58 -16q13 -1 26 0q11 1 22 4q27 5 61 19l31 14l29 14q16 8 33 2q17 -5 25 -21q8 -15 3 -32t-20 -26l-396 -226q-10 -6 -21 -6q-26 0 -38 22z" />
    <glyph glyph-name="uni0622" unicode="&#x622;" horiz-adv-x="1002" arabic-form="isolated" 
d="M444 -29q-33 4 -53 27q-21 23 -17 52q37 307 21 650q-9 210 -56 643q-3 30 18 53q21 22 54 25q32 3 57 -16q26 -18 29 -48q91 -851 34 -1322q-3 -28 -26 -46q-22 -18 -52 -18h-9zM47 1544q-27 18 -33 50q-7 33 11 60l10 14l10 15q12 18 24 32q29 36 61 60q85 64 198 44
q34 -6 79 -19l41 -12l41 -14l49 -16q27 -8 48 -14q52 -14 85 -16q115 -6 194 104q19 27 52 32q32 5 59 -14q26 -19 31 -52q6 -32 -14 -58q-130 -181 -330 -170q-47 3 -110 19q-25 7 -57 17l-57 18q-99 33 -138 39q-43 8 -72 -11q-28 -19 -72 -86q-23 -35 -66 -35
q-24 0 -44 13z" />
    <glyph glyph-name="uni0622.fina" unicode="&#x622;" horiz-adv-x="738" arabic-form="final" 
d="M686 18q-28 1 -52 4q-62 6 -110 25q-140 56 -178 220q-19 80 -18 421v96v96q-1 109 -3 192q-6 182 -24 303q-5 32 15 58q19 27 51 32q33 4 59 -15t31 -52q20 -128 26 -317q2 -85 3 -197v-276q0 -76 1 -130q3 -133 13 -175q19 -82 79 -108q44 -19 154 -19q32 0 55 -23
q24 -23 24 -56t-24 -56q-23 -23 -55 -23h-47zM33 1544q-27 18 -33 50q-7 33 11 60l10 14l10 15q12 18 24 32q29 36 61 60q85 64 198 44q34 -6 79 -19l41 -12l41 -14l49 -16q27 -8 48 -14q52 -14 85 -16q115 -6 194 104q19 27 52 32q32 5 59 -14q26 -19 31 -52q6 -32 -14 -58
q-130 -181 -330 -170q-47 3 -110 19q-25 7 -57 17l-57 18q-99 33 -138 39q-43 8 -72 -11q-28 -19 -72 -86q-23 -35 -66 -35q-24 0 -44 13z" />
    <glyph glyph-name="uni0671" unicode="&#x671;" horiz-adv-x="695" arabic-form="isolated" 
d="M412 -29q-33 4 -53 27q-21 23 -17 52q37 307 21 650q-9 210 -56 643q-3 30 18 53q21 22 54 25q32 3 57 -16q26 -18 29 -48q91 -851 34 -1322q-3 -28 -26 -46q-22 -18 -52 -18h-9zM461 1669q30 0 54 6q33 8 54 25q19 16 26 38q8 23 1 41q-6 16 -22 25q-16 8 -41 7
q-79 -3 -142 -80q-17 -21 -33 -48q53 -15 103 -14zM250 1535q-17 7 -25 23t-2 33l16 41q-33 11 -64 15q-32 4 -68 -20q-11 -7 -21 -17l-5 -5l-2 -2l-1 -1q-11 -13 -29 -15q-18 -1 -32 10q-14 12 -15 30q-2 18 10 31v1l1 1q2 1 3 3l10 10q18 16 37 29q61 39 123 31
q42 -5 89 -21q22 42 49 74q88 108 206 112q48 2 85 -17q44 -24 62 -70q18 -45 3 -94q-15 -50 -56 -84q-61 -50 -162 -51q-70 -1 -141 21l-16 -41q-10 -29 -41 -29q-7 0 -14 2z" />
    <glyph glyph-name="uni0671.fina" unicode="&#x671;" horiz-adv-x="640" arabic-form="final" 
d="M588 18q-28 1 -52 4q-62 6 -110 25q-140 56 -178 220q-19 80 -18 421v96v96q-1 109 -3 192q-6 182 -24 303q-5 32 15 58q19 27 51 32q33 4 59 -15t31 -52q20 -128 26 -317q2 -85 3 -197v-276q0 -76 1 -130q3 -133 13 -175q19 -82 79 -108q44 -19 154 -19q32 0 55 -23
q24 -23 24 -56t-24 -56q-23 -23 -55 -23h-47zM457 1669q30 0 54 6q33 8 54 25q19 16 26 38q8 23 1 41q-6 16 -22 25q-16 8 -41 7q-79 -3 -142 -80q-17 -21 -33 -48q53 -15 103 -14zM246 1535q-17 7 -25 23t-2 33l16 41q-33 11 -64 15q-32 4 -68 -20q-11 -7 -21 -17l-5 -5
l-2 -2l-1 -1q-11 -13 -29 -15q-18 -1 -32 10q-14 12 -15 30q-2 18 10 31v1l1 1q2 1 3 3l10 10q18 16 37 29q61 39 123 31q42 -5 89 -21q22 42 49 74q88 108 206 112q48 2 85 -17q44 -24 62 -70q18 -45 3 -94q-15 -50 -56 -84q-61 -50 -162 -51q-70 -1 -141 21l-16 -41
q-10 -29 -41 -29q-7 0 -14 2z" />
    <glyph glyph-name="uni0628" unicode="&#x628;" horiz-adv-x="2013" arabic-form="isolated" 
d="M514 52q-220 53 -325 184q-114 143 -94 307q18 147 143 289q22 24 55 26q32 2 57 -20q24 -21 26 -54t-19 -57q-188 -212 -45 -392q83 -103 296 -141q74 -13 164 -17q32 -2 67 -3h52q332 0 551 61q218 60 272 168q66 131 -109 369q-19 26 -15 59q5 32 32 51q26 20 58 15
q33 -5 52 -31q234 -316 123 -535q-89 -176 -394 -255q-231 -60 -570 -60q-225 0 -377 36zM1111 -344q0 -47 -36 -85q-36 -37 -79 -37q-45 0 -96 36q-36 39 -36 86q0 42 38 81q40 41 84 41q45 0 84 -37q41 -39 41 -85z" />
    <glyph glyph-name="uni0628.init" unicode="&#x628;" horiz-adv-x="715" arabic-form="initial" 
d="M-2 18q-33 0 -56 23t-23 56t23 56t56 23q185 0 271 19q121 27 169 105q37 62 11 205q-25 143 -102 303q-15 29 -4 60t40 45q30 15 61 4t45 -40q83 -173 114 -335q40 -209 -30 -324q-81 -132 -258 -175q-68 -17 -159 -22q-36 -2 -80 -3h-78zM424 -344q0 -47 -36 -85
q-36 -37 -79 -37q-45 0 -96 36q-36 39 -36 86q0 42 38 81q40 41 84 41q45 0 84 -37q41 -39 41 -85z" />
    <glyph glyph-name="uni0628.medi" unicode="&#x628;" horiz-adv-x="748" arabic-form="medial" 
d="M741 176q33 0 56 -23t23 -56t-23 -56t-56 -23q-83 0 -151 30q-87 39 -143 126q-11 -16 -23 -30q-68 -75 -190 -104q-90 -22 -237 -22q-33 0 -56 23t-23 56t23 56t56 23q243 0 309 74q62 69 44 243q-3 31 -7 69l-2 33l-3 32q-3 43 -5 63q-3 32 18 58q21 25 53 28
q33 3 58 -18t28 -54q2 -20 6 -65q18 -235 58 -330q55 -133 187 -133zM457 -344q0 -47 -36 -85q-36 -37 -79 -37q-45 0 -96 36q-36 39 -36 86q0 42 38 81q40 41 84 41q45 0 84 -37q41 -39 41 -85z" />
    <glyph glyph-name="uni0628.fina" unicode="&#x628;" horiz-adv-x="2316" arabic-form="final" 
d="M462 54q-211 85 -289 246q-76 156 -8 361q24 74 64 144q34 59 70 100q21 25 54 27q32 2 57 -19q25 -22 27 -54q2 -33 -19 -58q-26 -30 -53 -77q-30 -54 -49 -110q-49 -145 -1 -246q53 -109 218 -171q144 -55 313 -55q416 0 652 123q235 123 354 404q12 27 38 39
q26 13 55 6q28 -7 45 -31t14 -53l-1 -10l-5 -47l-4 -49q-3 -56 0 -98q8 -111 60 -168q73 -82 258 -82q33 0 56 -23q24 -23 24 -56q0 -32 -24 -56q-23 -23 -56 -23q-255 0 -376 134q-70 78 -92 196q-111 -136 -267 -219q-273 -145 -731 -145q-209 0 -384 70zM1179 -344
q0 -47 -36 -85q-36 -37 -79 -37q-45 0 -96 36q-36 39 -36 86q0 42 38 81q40 41 84 41q45 0 84 -37q41 -39 41 -85z" />
    <glyph glyph-name="uni067E" unicode="&#x67e;" horiz-adv-x="2013" arabic-form="isolated" 
d="M514 52q-220 53 -325 184q-114 143 -94 307q18 147 143 289q22 24 55 26q32 2 57 -20q24 -21 26 -54t-19 -57q-188 -212 -45 -392q83 -103 296 -141q74 -13 164 -17q32 -2 67 -3h52q332 0 551 61q218 60 272 168q66 131 -109 369q-19 26 -15 59q5 32 32 51q26 20 58 15
q33 -5 52 -31q234 -316 123 -535q-89 -176 -394 -255q-231 -60 -570 -60q-225 0 -377 36zM1344 -257q12 -29 1 -59q-10 -30 -36 -43q-292 -147 -607 -88q-29 6 -45 32q-17 26 -12 57q5 32 28 50q23 19 51 14q275 -52 529 76q14 7 28 7q45 0 63 -46zM1043 -612q51 9 88 -28
q26 -25 29 -62t-18 -66q-5 -7 -11 -12q-26 -25 -63 -30q-36 -6 -68 9q-33 15 -52 47q-19 31 -17 67q2 42 38 64q23 14 51 14q11 0 23 -3z" />
    <glyph glyph-name="uni067E.fina" unicode="&#x67e;" horiz-adv-x="2316" arabic-form="final" 
d="M462 54q-211 85 -289 246q-76 156 -8 361q24 74 64 144q34 59 70 100q21 25 54 27q32 2 57 -19q25 -22 27 -54q2 -33 -19 -58q-26 -30 -53 -77q-30 -54 -49 -110q-49 -145 -1 -246q53 -109 218 -171q144 -55 313 -55q416 0 652 123q235 123 354 404q12 27 38 39
q26 13 55 6q28 -7 45 -31t14 -53l-1 -10l-5 -47l-4 -49q-3 -56 0 -98q8 -111 60 -168q73 -82 258 -82q33 0 56 -23q24 -23 24 -56q0 -32 -24 -56q-23 -23 -56 -23q-255 0 -376 134q-70 78 -92 196q-111 -136 -267 -219q-273 -145 -731 -145q-209 0 -384 70zM1353 -257
q12 -29 1 -59q-10 -30 -36 -43q-292 -147 -607 -88q-29 6 -45 32q-17 26 -12 57q5 32 28 50q23 19 51 14q275 -52 529 76q14 7 28 7q45 0 63 -46zM1052 -612q51 9 88 -28q26 -25 29 -62t-18 -66q-5 -7 -11 -12q-26 -25 -63 -30q-36 -6 -68 9q-33 15 -52 47q-19 31 -17 67
q2 42 38 64q23 14 51 14q11 0 23 -3z" />
    <glyph glyph-name="uni067E.init" unicode="&#x67e;" horiz-adv-x="843" arabic-form="initial" 
d="M-1 18q-33 0 -56 23t-23 56t23 56t56 23q264 0 350 19q121 27 169 105q37 62 11 205q-25 143 -102 303q-15 29 -4 60t40 45q30 15 61 4t45 -40q83 -173 114 -335q40 -209 -30 -324q-81 -132 -258 -175q-68 -17 -159 -22q-36 -2 -80 -3h-157zM731 -257q12 -29 1 -59
q-10 -30 -36 -43q-292 -147 -607 -88q-29 6 -45 32q-17 26 -12 57q5 32 28 50q23 19 51 14q275 -52 529 76q14 7 28 7q45 0 63 -46zM430 -612q51 9 88 -28q26 -25 29 -62t-18 -66q-5 -7 -11 -12q-26 -25 -63 -30q-36 -6 -68 9q-33 15 -52 47q-19 31 -17 67q2 42 38 64
q23 14 51 14q11 0 23 -3z" />
    <glyph glyph-name="uni067E.medi" unicode="&#x67e;" horiz-adv-x="852" arabic-form="medial" 
d="M851 176q33 0 56 -23t23 -56t-23 -56t-56 -23q-83 0 -151 30q-87 39 -143 126q-11 -16 -23 -30q-68 -75 -190 -104q-90 -22 -344 -22q-33 0 -56 23t-23 56t23 56t56 23q350 0 416 70q68 54 45 247q-16 177 -18 197q-3 32 18 58q21 25 53 28q33 3 58 -18t28 -54
q2 -20 6 -65q18 -235 58 -330q55 -133 187 -133zM731 -257q12 -29 1 -59q-10 -30 -36 -43q-292 -147 -607 -88q-29 6 -45 32q-17 26 -12 57q5 32 28 50q23 19 51 14q275 -52 529 76q14 7 28 7q45 0 63 -46zM430 -612q51 9 88 -28q26 -25 29 -62t-18 -66q-5 -7 -11 -12
q-26 -25 -63 -30q-36 -6 -68 9q-33 15 -52 47q-19 31 -17 67q2 42 38 64q23 14 51 14q11 0 23 -3z" />
    <glyph glyph-name="uni062A" unicode="&#x62a;" horiz-adv-x="2013" arabic-form="isolated" 
d="M514 52q-220 53 -325 184q-114 143 -94 307q18 147 143 289q22 24 55 26q32 2 57 -20q24 -21 26 -54t-19 -57q-188 -212 -45 -392q83 -103 296 -141q74 -13 164 -17q32 -2 67 -3h52q332 0 551 61q218 60 272 168q66 131 -109 369q-19 26 -15 59q5 32 32 51q26 20 58 15
q33 -5 52 -31q234 -316 123 -535q-89 -176 -394 -255q-231 -60 -570 -60q-225 0 -377 36zM666 919q-15 29 -5 61q10 31 39 46q184 95 402 83q70 -4 135 -18q21 -5 40 -10q6 -2 12 -3l3 -2h2q31 -11 45 -40t4 -60q-11 -31 -40 -46q-28 -14 -59 -4h-1l-2 1q-4 1 -9 3
q-14 3 -31 7q-52 11 -108 14q-177 9 -322 -66q-17 -9 -36 -9q-48 0 -69 43z" />
    <glyph glyph-name="uni062A.init" unicode="&#x62a;" horiz-adv-x="843" arabic-form="initial" 
d="M-1 18q-33 0 -56 23t-23 56t23 56t56 23q264 0 350 19q121 27 169 105q37 62 11 205q-25 143 -102 303q-15 29 -4 60t40 45q30 15 61 4t45 -40q83 -173 114 -335q40 -209 -30 -324q-81 -132 -258 -175q-68 -17 -159 -22q-36 -2 -80 -3h-157zM101 1201q-15 29 -5 61
q10 31 39 46q184 95 402 83q70 -4 135 -18q21 -5 40 -10q6 -2 12 -3l3 -2h2q31 -11 45 -40t4 -60q-11 -31 -40 -46q-28 -14 -59 -4h-1l-2 1q-4 1 -9 3q-14 3 -31 7q-52 11 -108 14q-177 9 -322 -66q-17 -9 -36 -9q-48 0 -69 43z" />
    <glyph glyph-name="uni062A.medi" unicode="&#x62a;" horiz-adv-x="852" arabic-form="medial" 
d="M851 176q33 0 56 -23t23 -56t-23 -56t-56 -23q-83 0 -151 30q-87 39 -143 126q-11 -16 -23 -30q-68 -75 -190 -104q-90 -22 -344 -22q-33 0 -56 23t-23 56t23 56t56 23q350 0 416 70q68 54 45 247q-16 177 -18 197q-3 32 18 58q21 25 53 28q33 3 58 -18t28 -54
q2 -20 6 -65q18 -235 58 -330q55 -133 187 -133zM51 995q-15 29 -5 61q10 31 39 46q184 95 402 83q70 -4 135 -18q21 -5 40 -10q6 -2 12 -3l3 -2h2q31 -11 45 -40t4 -60q-11 -31 -40 -46q-28 -14 -59 -4h-1l-2 1q-4 1 -9 3q-14 3 -31 7q-52 11 -108 14q-177 9 -322 -66
q-17 -9 -36 -9q-48 0 -69 43z" />
    <glyph glyph-name="uni062A.fina" unicode="&#x62a;" horiz-adv-x="2316" arabic-form="final" 
d="M462 54q-211 85 -289 246q-76 156 -8 361q24 74 64 144q34 59 70 100q21 25 54 27q32 2 57 -19q25 -22 27 -54q2 -33 -19 -58q-26 -30 -53 -77q-30 -54 -49 -110q-49 -145 -1 -246q53 -109 218 -171q144 -55 313 -55q416 0 652 123q235 123 354 404q12 27 38 39
q26 13 55 6q28 -7 45 -31t14 -53l-1 -10l-5 -47l-4 -49q-3 -56 0 -98q8 -111 60 -168q73 -82 258 -82q33 0 56 -23q24 -23 24 -56q0 -32 -24 -56q-23 -23 -56 -23q-255 0 -376 134q-70 78 -92 196q-111 -136 -267 -219q-273 -145 -731 -145q-209 0 -384 70zM766 919
q-15 29 -5 61q10 31 39 46q184 95 402 83q70 -4 135 -18q21 -5 40 -10q6 -2 12 -3l3 -2h2q31 -11 45 -40t4 -60q-11 -31 -40 -46q-28 -14 -59 -4h-1l-2 1q-4 1 -9 3q-14 3 -31 7q-52 11 -108 14q-177 9 -322 -66q-17 -9 -36 -9q-48 0 -69 43z" />
    <glyph glyph-name="uni062B" unicode="&#x62b;" horiz-adv-x="2013" arabic-form="isolated" 
d="M514 52q-220 53 -325 184q-114 143 -94 307q18 147 143 289q22 24 55 26q32 2 57 -20q24 -21 26 -54t-19 -57q-188 -212 -45 -392q83 -103 296 -141q74 -13 164 -17q32 -2 67 -3h52q332 0 551 61q218 60 272 168q66 131 -109 369q-19 26 -15 59q5 32 32 51q26 20 58 15
q33 -5 52 -31q234 -316 123 -535q-89 -176 -394 -255q-231 -60 -570 -60q-225 0 -377 36zM646 868q-11 29 -1 59t36 43q292 146 608 87q28 -5 44 -31q17 -26 12 -57q-4 -32 -28 -51q-23 -18 -51 -13q-275 51 -529 -76q-14 -7 -28 -7q-45 0 -63 46zM947 1223q-51 -9 -88 27
q-25 26 -28 63q-3 36 18 66q4 7 10 12q27 24 63 30t68 -9q33 -16 52 -47t17 -67q-2 -42 -38 -64q-23 -14 -51 -14q-11 0 -23 3z" />
    <glyph glyph-name="uni062B.init" unicode="&#x62b;" horiz-adv-x="843" arabic-form="initial" 
d="M-1 18q-33 0 -56 23t-23 56t23 56t56 23q264 0 350 19q121 27 169 105q37 62 11 205q-25 143 -102 303q-15 29 -4 60t40 45q30 15 61 4t45 -40q83 -173 114 -335q40 -209 -30 -324q-81 -132 -258 -175q-68 -17 -159 -22q-36 -2 -80 -3h-157zM52 1168q-11 29 -1 59t36 43
q292 146 608 87q28 -5 44 -31q17 -26 12 -57q-4 -32 -28 -51q-23 -18 -51 -13q-275 51 -529 -76q-14 -7 -28 -7q-45 0 -63 46zM353 1523q-51 -9 -88 27q-25 26 -28 63q-3 36 18 66q4 7 10 12q27 24 63 30t68 -9q33 -16 52 -47t17 -67q-2 -42 -38 -64q-23 -14 -51 -14
q-11 0 -23 3z" />
    <glyph glyph-name="uni062B.medi" unicode="&#x62b;" horiz-adv-x="852" arabic-form="medial" 
d="M851 176q33 0 56 -23t23 -56t-23 -56t-56 -23q-83 0 -151 30q-87 39 -143 126q-11 -16 -23 -30q-68 -75 -190 -104q-90 -22 -344 -22q-33 0 -56 23t-23 56t23 56t56 23q350 0 416 70q68 54 45 247q-16 177 -18 197q-3 32 18 58q21 25 53 28q33 3 58 -18t28 -54
q2 -20 6 -65q18 -235 58 -330q55 -133 187 -133zM52 1008q-11 29 -1 59t36 43q292 146 608 87q28 -5 44 -31q17 -26 12 -57q-4 -32 -28 -51q-23 -18 -51 -13q-275 51 -529 -76q-14 -7 -28 -7q-45 0 -63 46zM353 1363q-51 -9 -88 27q-25 26 -28 63q-3 36 18 66q4 7 10 12
q27 24 63 30t68 -9q33 -16 52 -47t17 -67q-2 -42 -38 -64q-23 -14 -51 -14q-11 0 -23 3z" />
    <glyph glyph-name="uni062B.fina" unicode="&#x62b;" horiz-adv-x="2316" arabic-form="final" 
d="M462 54q-211 85 -289 246q-76 156 -8 361q24 74 64 144q34 59 70 100q21 25 54 27q32 2 57 -19q25 -22 27 -54q2 -33 -19 -58q-26 -30 -53 -77q-30 -54 -49 -110q-49 -145 -1 -246q53 -109 218 -171q144 -55 313 -55q416 0 652 123q235 123 354 404q12 27 38 39
q26 13 55 6q28 -7 45 -31t14 -53l-1 -10l-5 -47l-4 -49q-3 -56 0 -98q8 -111 60 -168q73 -82 258 -82q33 0 56 -23q24 -23 24 -56q0 -32 -24 -56q-23 -23 -56 -23q-255 0 -376 134q-70 78 -92 196q-111 -136 -267 -219q-273 -145 -731 -145q-209 0 -384 70zM744 868
q-11 29 -1 59t36 43q292 146 608 87q28 -5 44 -31q17 -26 12 -57q-4 -32 -28 -51q-23 -18 -51 -13q-275 51 -529 -76q-14 -7 -28 -7q-45 0 -63 46zM1045 1223q-51 -9 -88 27q-25 26 -28 63q-3 36 18 66q4 7 10 12q27 24 63 30t68 -9q33 -16 52 -47t17 -67q-2 -42 -38 -64
q-23 -14 -51 -14q-11 0 -23 3z" />
    <glyph glyph-name="uni0629" unicode="&#x629;" horiz-adv-x="990" arabic-form="isolated" 
d="M232 111q-113 98 -113 256q0 97 52 199q20 39 48 82q11 16 25 35l12 17l11 15q21 28 28 39q18 27 50 33q32 7 59 -11q28 -18 34 -51q6 -32 -12 -59q-9 -14 -32 -45l-9 -13l-10 -13l-20 -28q-22 -34 -38 -62q-40 -75 -40 -138q0 -91 65 -142q58 -46 144 -46q29 0 65 8
q45 10 82 28q99 52 99 152q0 129 -140 310q-127 165 -256 238q-28 17 -37 48q-9 32 8 60q16 29 47 37q32 9 60 -7q156 -89 303 -278q73 -94 116 -185q57 -120 57 -223q0 -175 -152 -273q-114 -73 -252 -73q-151 0 -254 90zM125 1280q-15 29 -5 61q10 31 39 46q184 95 402 83
q70 -4 135 -18q21 -5 40 -10q6 -2 12 -3l3 -2h2q31 -11 45 -40t4 -60q-11 -31 -40 -46q-28 -14 -59 -4h-1l-2 1q-4 1 -9 3q-14 3 -31 7q-52 11 -108 14q-177 9 -322 -66q-17 -9 -36 -9q-48 0 -69 43z" />
    <glyph glyph-name="uni0629.fina" unicode="&#x629;" horiz-adv-x="1133" arabic-form="final" 
d="M743 243q-36 77 -58 187q-8 43 -16 98l-12 96q-14 113 -23 155q-6 24 -12 40q-2 7 -5 12q-2 4 -4 7q-5 -2 -13 -5q-153 -70 -282 -237q-126 -163 -105 -262q10 -51 82 -75q54 -18 139 -19q33 0 56 -24q23 -23 22 -56q0 -33 -24 -56q-23 -22 -56 -22q-158 2 -252 56
q-100 57 -122 163q-21 99 32 221q20 47 50 96q24 38 52 75q153 198 343 284q49 22 93 20q33 -2 61 -18q61 -34 89 -127q17 -58 36 -209q29 -242 74 -336q63 -131 203 -131q33 0 56 -23t23 -56t-23 -56t-56 -23q-242 0 -348 225zM254 1280q-15 29 -5 61q10 31 39 46
q184 95 402 83q70 -4 135 -18q21 -5 40 -10q6 -2 12 -3l3 -2h2q31 -11 45 -40t4 -60q-11 -31 -40 -46q-28 -14 -59 -4h-1l-2 1q-4 1 -9 3q-14 3 -31 7q-52 11 -108 14q-177 9 -322 -66q-17 -9 -36 -9q-48 0 -69 43z" />
    <glyph glyph-name="uni0686.init" unicode="&#x686;" horiz-adv-x="1619" arabic-form="initial" 
d="M-58 41q-23 23 -23 56t23 56t56 23q346 0 679 90q395 107 633 311q-95 28 -176 51q-109 30 -199 52q-182 44 -291 56q-40 5 -68 5q-20 -1 -32 -3q-96 -21 -132 -69q-29 -37 -59 -158q-8 -32 -36 -48q-28 -17 -60 -9t-49 36t-9 60q39 152 88 217q71 93 224 125
q50 11 133 3q122 -11 329 -62q117 -28 266 -70q54 -16 115 -34q23 -7 50 -14l22 -7l20 -6q26 -8 39 -11q42 -13 53 -55q12 -42 -17 -74q-254 -281 -726 -426q-385 -118 -797 -118q-33 0 -56 23zM1155 -257q12 -29 1 -59q-10 -30 -36 -43q-292 -147 -607 -88q-29 6 -45 32
q-17 26 -12 57q5 32 28 50q23 19 51 14q275 -52 529 76q14 7 28 7q45 0 63 -46zM854 -612q51 9 88 -28q26 -25 29 -62t-18 -66q-5 -7 -11 -12q-26 -25 -63 -30q-36 -6 -68 9q-33 15 -52 47q-19 31 -17 67q2 42 38 64q23 14 51 14q11 0 23 -3z" />
    <glyph glyph-name="uni0686.medi" unicode="&#x686;" horiz-adv-x="1701" arabic-form="medial" 
d="M1702 177q33 0 56 -24q23 -23 23 -55q0 -33 -23 -56q-23 -24 -56 -24q-209 0 -357 68q-148 67 -220 194q-155 -79 -336 -136q-399 -127 -795 -126q-34 -1 -57 22t-23 56t23 56t56 23q331 0 675 98q387 110 632 305q-94 28 -175 50q-106 29 -195 51q-182 44 -291 56
q-40 5 -68 5q-20 -1 -32 -3q-96 -21 -132 -69q-29 -37 -59 -158q-8 -32 -36 -48q-28 -17 -60 -9t-49 36t-9 60q39 152 88 217q71 93 224 125q50 11 133 3q122 -11 329 -62q117 -28 266 -70q54 -16 115 -34q23 -7 50 -14l22 -7l20 -6q26 -8 39 -11q43 -13 54 -56t-20 -75
q-106 -109 -252 -201q58 -101 193 -146q104 -35 247 -35zM1087 -255q12 -29 1 -59q-10 -30 -36 -43q-292 -147 -607 -88q-29 6 -45 32q-17 26 -12 57q5 32 28 50q23 19 51 14q275 -52 529 76q14 7 28 7q45 0 63 -46zM786 -610q51 9 88 -28q26 -25 29 -62t-18 -66
q-5 -7 -11 -12q-26 -25 -63 -30q-36 -6 -68 9q-33 15 -52 47q-19 31 -17 67q2 42 38 64q23 14 51 14q11 0 23 -3z" />
    <glyph glyph-name="uni062C" unicode="&#x62c;" horiz-adv-x="1647" arabic-form="isolated" 
d="M724 -778q-233 4 -423 148q-212 159 -229 393q-17 241 116 431q115 163 334 281q243 130 593 198q-195 87 -317 130q-176 62 -272 62q-166 0 -216 -177q-9 -31 -38 -47q-28 -16 -60 -7q-31 9 -47 37q-16 29 -7 60q41 147 141 222q93 71 227 71q129 0 350 -81
q85 -31 195 -78q43 -18 95 -42l47 -20l46 -21q118 -53 167 -73q25 -11 38 -34q13 -24 9 -51q-4 -26 -23 -45t-46 -22q-83 -9 -166 -22q-106 -18 -205 -42q-256 -61 -436 -158q-393 -211 -367 -560q12 -166 170 -282q147 -109 327 -113q160 -3 318 55q178 64 278 184
q22 25 54 27q33 3 58 -18t28 -53q3 -33 -19 -58q-113 -135 -304 -215q-190 -80 -398 -80h-18zM1046 -76q0 -50 -38 -90q-39 -39 -85 -39q-48 0 -102 38q-38 41 -38 91q0 44 41 86q42 43 89 43t89 -39q44 -41 44 -90z" />
    <glyph glyph-name="uni062C.init" unicode="&#x62c;" horiz-adv-x="1619" arabic-form="initial" 
d="M-58 41q-23 23 -23 56t23 56t56 23q346 0 679 90q395 107 633 311q-95 28 -176 51q-109 30 -199 52q-182 44 -291 56q-40 5 -68 5q-20 -1 -32 -3q-96 -21 -132 -69q-29 -37 -59 -158q-8 -32 -36 -48q-28 -17 -60 -9t-49 36t-9 60q39 152 88 217q71 93 224 125
q50 11 133 3q122 -11 329 -62q117 -28 266 -70q54 -16 115 -34q23 -7 50 -14l22 -7l20 -6q26 -8 39 -11q42 -13 53 -55q12 -42 -17 -74q-254 -281 -726 -426q-385 -118 -797 -118q-33 0 -56 23zM926 -342q0 -47 -36 -85q-36 -37 -79 -37q-45 0 -96 36q-36 39 -36 86
q0 42 38 81q40 41 84 41q45 0 84 -37q41 -39 41 -85z" />
    <glyph glyph-name="uni062C.medi" unicode="&#x62c;" horiz-adv-x="1701" arabic-form="medial" 
d="M1702 177q33 0 56 -24q23 -23 23 -55q0 -33 -23 -56q-23 -24 -56 -24q-209 0 -357 68q-148 67 -220 194q-155 -79 -336 -136q-399 -127 -795 -126q-34 -1 -57 22t-23 56t23 56t56 23q331 0 675 98q387 110 632 305q-94 28 -175 50q-106 29 -195 51q-182 44 -291 56
q-40 5 -68 5q-20 -1 -32 -3q-96 -21 -132 -69q-29 -37 -59 -158q-8 -32 -36 -48q-28 -17 -60 -9t-49 36t-9 60q39 152 88 217q71 93 224 125q50 11 133 3q122 -11 329 -62q117 -28 266 -70q54 -16 115 -34q23 -7 50 -14l22 -7l20 -6q26 -8 39 -11q43 -13 54 -56t-20 -75
q-106 -109 -252 -201q58 -101 193 -146q104 -35 247 -35zM926 -344q0 -47 -36 -85q-36 -37 -79 -37q-45 0 -96 36q-36 39 -36 86q0 42 38 81q40 41 84 41q45 0 84 -37q41 -39 41 -85z" />
    <glyph glyph-name="uni062C.fina" unicode="&#x62c;" horiz-adv-x="1702" arabic-form="final" 
d="M1703 176q33 0 56 -23t23 -56q0 -32 -23 -56q-23 -23 -56 -23q-267 0 -403 129q-129 121 -149 356q-284 -63 -479 -168q-393 -211 -367 -560q12 -166 170 -282q147 -109 327 -113q160 -3 318 55q178 64 278 184q22 25 54 27q33 3 58 -18t28 -53q3 -33 -19 -58
q-113 -135 -304 -215q-190 -80 -398 -80h-18q-233 4 -423 148q-212 159 -229 393q-17 241 116 431q115 163 334 281q243 130 593 198q-195 87 -317 130q-176 62 -272 62q-166 0 -216 -177q-9 -31 -38 -47q-28 -16 -60 -7q-31 9 -47 37q-16 29 -7 60q41 147 141 222
q93 71 227 71q129 0 350 -81q85 -31 195 -78q43 -18 95 -42l47 -20l46 -21q118 -53 167 -73q25 -11 38 -34q13 -24 9 -51q-4 -26 -23 -45t-46 -22q-86 -9 -172 -23q14 -207 122 -289q89 -69 274 -69zM1061 -111q0 -50 -38 -90q-39 -39 -85 -39q-48 0 -102 38q-38 41 -38 91
q0 44 41 86q42 43 89 43t89 -39q44 -41 44 -90z" />
    <glyph glyph-name="uni062E" unicode="&#x62e;" horiz-adv-x="1647" arabic-form="isolated" 
d="M724 -778q-233 4 -423 148q-212 159 -229 393q-17 241 116 431q115 163 334 281q243 130 593 198q-195 87 -317 130q-176 62 -272 62q-166 0 -216 -177q-9 -31 -38 -47q-28 -16 -60 -7q-31 9 -47 37q-16 29 -7 60q41 147 141 222q93 71 227 71q129 0 350 -81
q85 -31 195 -78q43 -18 95 -42l47 -20l46 -21q118 -53 167 -73q25 -11 38 -34q13 -24 9 -51q-4 -26 -23 -45t-46 -22q-83 -9 -166 -22q-106 -18 -205 -42q-256 -61 -436 -158q-393 -211 -367 -560q12 -166 170 -282q147 -109 327 -113q160 -3 318 55q178 64 278 184
q22 25 54 27q33 3 58 -18t28 -53q3 -33 -19 -58q-113 -135 -304 -215q-190 -80 -398 -80h-18zM751 1428q0 -50 -38 -90q-39 -39 -85 -39q-48 0 -102 38q-38 41 -38 91q0 44 41 86q42 43 89 43t89 -39q44 -41 44 -90z" />
    <glyph glyph-name="uni062E.init" unicode="&#x62e;" horiz-adv-x="1619" arabic-form="initial" 
d="M-58 41q-23 23 -23 56t23 56t56 23q346 0 679 90q395 107 633 311q-95 28 -176 51q-109 30 -199 52q-182 44 -291 56q-40 5 -68 5q-20 -1 -32 -3q-96 -21 -132 -69q-29 -37 -59 -158q-8 -32 -36 -48q-28 -17 -60 -9t-49 36t-9 60q39 152 88 217q71 93 224 125
q50 11 133 3q122 -11 329 -62q117 -28 266 -70q54 -16 115 -34q23 -7 50 -14l22 -7l20 -6q26 -8 39 -11q42 -13 53 -55q12 -42 -17 -74q-254 -281 -726 -426q-385 -118 -797 -118q-33 0 -56 23zM662 1272q0 -50 -38 -90q-39 -39 -85 -39q-48 0 -102 38q-38 41 -38 91
q0 44 41 86q42 43 89 43t89 -39q44 -41 44 -90z" />
    <glyph glyph-name="uni062E.medi" unicode="&#x62e;" horiz-adv-x="1701" arabic-form="medial" 
d="M1702 177q33 0 56 -24q23 -23 23 -55q0 -33 -23 -56q-23 -24 -56 -24q-209 0 -357 68q-148 67 -220 194q-155 -79 -336 -136q-399 -127 -795 -126q-34 -1 -57 22t-23 56t23 56t56 23q331 0 675 98q387 110 632 305q-94 28 -175 50q-106 29 -195 51q-182 44 -291 56
q-40 5 -68 5q-20 -1 -32 -3q-96 -21 -132 -69q-29 -37 -59 -158q-8 -32 -36 -48q-28 -17 -60 -9t-49 36t-9 60q39 152 88 217q71 93 224 125q50 11 133 3q122 -11 329 -62q117 -28 266 -70q54 -16 115 -34q23 -7 50 -14l22 -7l20 -6q26 -8 39 -11q43 -13 54 -56t-20 -75
q-106 -109 -252 -201q58 -101 193 -146q104 -35 247 -35zM676 1272q0 -50 -38 -90q-39 -39 -85 -39q-48 0 -102 38q-38 41 -38 91q0 44 41 86q42 43 89 43t89 -39q44 -41 44 -90z" />
    <glyph glyph-name="uni062E.fina" unicode="&#x62e;" horiz-adv-x="1702" arabic-form="final" 
d="M1703 176q33 0 56 -23t23 -56q0 -32 -23 -56q-23 -23 -56 -23q-267 0 -403 129q-129 121 -149 356q-284 -63 -479 -168q-393 -211 -367 -560q12 -166 170 -282q147 -109 327 -113q160 -3 318 55q178 64 278 184q22 25 54 27q33 3 58 -18t28 -53q3 -33 -19 -58
q-113 -135 -304 -215q-190 -80 -398 -80h-18q-233 4 -423 148q-212 159 -229 393q-17 241 116 431q115 163 334 281q243 130 593 198q-195 87 -317 130q-176 62 -272 62q-166 0 -216 -177q-9 -31 -38 -47q-28 -16 -60 -7q-31 9 -47 37q-16 29 -7 60q41 147 141 222
q93 71 227 71q129 0 350 -81q85 -31 195 -78q43 -18 95 -42l47 -20l46 -21q118 -53 167 -73q25 -11 38 -34q13 -24 9 -51q-4 -26 -23 -45t-46 -22q-86 -9 -172 -23q14 -207 122 -289q89 -69 274 -69zM770 1393q0 -50 -38 -90q-39 -39 -85 -39q-48 0 -102 38q-38 41 -38 91
q0 44 41 86q42 43 89 43t89 -39q44 -41 44 -90z" />
    <glyph glyph-name="uni0630" unicode="&#x630;" horiz-adv-x="1127" arabic-form="isolated" 
d="M188 68q-31 10 -46 38q-16 29 -6 61q9 31 38 46q29 16 60 6q227 -68 404 -30q172 38 226 169q10 23 -12 83q-26 73 -89 164q-144 206 -358 358q-27 19 -33 51q-5 32 14 59t51 32q32 6 59 -13q237 -168 396 -396q75 -107 108 -198q44 -120 10 -201q-86 -207 -338 -262
q-76 -17 -164 -17q-155 0 -320 50zM591 1488q0 -50 -38 -90q-39 -39 -85 -39q-48 0 -102 38q-38 41 -38 91q0 44 41 86q42 43 89 43t89 -39q44 -41 44 -90z" />
    <glyph glyph-name="uni0630.fina" unicode="&#x630;" horiz-adv-x="1262" arabic-form="final" 
d="M1257 176q33 0 56 -23t23 -56t-23 -56t-56 -23q-88 0 -168 48q-91 55 -155 162q-34 -49 -81 -88q-113 -93 -269 -116q-42 -6 -87 -6q-126 0 -251 49q-31 12 -44 42t-1 60q11 31 41 44t61 1q136 -53 265 -32q108 18 184 80q53 44 77 100t15 111q-39 181 -82 387
q-13 64 -25 123l-5 20q-1 8 -3 15l-1 5l-1 4v3q-7 33 11 60t50 34t59 -11q28 -18 34 -50l2 -8l1 -5q2 -7 3 -15l4 -20q13 -59 26 -124q43 -205 82 -387q37 -178 125 -265q36 -36 77 -52q16 -6 32 -9q12 -2 24 -2zM888 1500q0 -50 -38 -90q-39 -39 -85 -39q-48 0 -102 38
q-38 41 -38 91q0 44 41 86q42 43 89 43t89 -39q44 -41 44 -90z" />
    <glyph glyph-name="uni0632" unicode="&#x632;" horiz-adv-x="887" arabic-form="isolated" 
d="M17 -665q-15 29 -5 60q9 31 38 47q274 146 398 367q151 270 151 749q0 33 23 56q24 23 56 23q33 0 56 -23t23 -56q0 -505 -162 -807q-148 -277 -471 -449q-17 -9 -37 -9q-47 0 -70 42zM772 1064q0 -50 -38 -90q-39 -39 -85 -39q-48 0 -102 38q-38 41 -38 91q0 44 41 86
q42 43 89 43t89 -39q44 -41 44 -90z" />
    <glyph glyph-name="uni0632.fina" unicode="&#x632;" horiz-adv-x="961" arabic-form="final" 
d="M23 -682q-18 28 -11 60q6 32 33 50q8 5 24 16l16 9l16 11q20 13 37 25q45 32 84 65q106 90 181 200q212 312 175 775q-3 33 18 58t54 28q32 2 57 -19t28 -53q21 -237 106 -321q31 -30 70 -40q14 -4 31 -5l14 -1h12q33 0 56 -23t23 -56t-23 -56t-56 -23q-154 0 -250 105
q-46 -257 -184 -458q-86 -127 -206 -229q-45 -38 -96 -74q-19 -13 -41 -28l-19 -12l-17 -11q-16 -10 -22 -15q-20 -13 -44 -13q-42 0 -66 35zM744 1064q0 -50 -38 -90q-39 -39 -85 -39q-48 0 -102 38q-38 41 -38 91q0 44 41 86q42 43 89 43t89 -39q44 -41 44 -90z" />
    <glyph glyph-name="uni0698" unicode="&#x698;" horiz-adv-x="969" arabic-form="isolated" 
d="M15 -665q-15 29 -5 60q9 31 38 47q274 146 398 367q151 270 151 749q0 33 23 56q24 23 56 23q33 0 56 -23t23 -56q0 -505 -162 -807q-148 -277 -471 -449q-17 -9 -37 -9q-47 0 -70 42zM265 888q-11 29 -1 59t36 43q292 146 608 87q28 -5 44 -31q17 -26 12 -57
q-4 -32 -28 -51q-23 -18 -51 -13q-275 51 -529 -76q-14 -7 -28 -7q-45 0 -63 46zM566 1243q-51 -9 -88 27q-25 26 -28 63q-3 36 18 66q4 7 10 12q27 24 63 30t68 -9q33 -16 52 -47t17 -67q-2 -42 -38 -64q-23 -14 -51 -14q-11 0 -23 3z" />
    <glyph glyph-name="uni0698.fina" unicode="&#x698;" horiz-adv-x="962" arabic-form="final" 
d="M18 -682q-18 28 -11 60q6 32 33 50q8 5 24 16l16 9l16 11q20 13 37 25q45 32 84 65q106 90 181 200q212 312 175 775q-3 33 18 58t54 28q32 2 57 -19t28 -53q21 -237 106 -321q31 -30 70 -40q14 -4 31 -5l14 -1h12q33 0 56 -23t23 -56t-23 -56t-56 -23q-154 0 -250 105
q-46 -257 -184 -458q-86 -127 -206 -229q-45 -38 -96 -74q-19 -13 -41 -28l-19 -12l-17 -11q-16 -10 -22 -15q-20 -13 -44 -13q-42 0 -66 35zM286 888q-11 29 -1 59t36 43q292 146 608 87q28 -5 44 -31q17 -26 12 -57q-4 -32 -28 -51q-23 -18 -51 -13q-275 51 -529 -76
q-14 -7 -28 -7q-45 0 -63 46zM587 1243q-51 -9 -88 27q-25 26 -28 63q-3 36 18 66q4 7 10 12q27 24 63 30t68 -9q33 -16 52 -47t17 -67q-2 -42 -38 -64q-23 -14 -51 -14q-11 0 -23 3z" />
    <glyph glyph-name="uni0634" unicode="&#x634;" horiz-adv-x="2692" arabic-form="isolated" 
d="M495 -595q-140 55 -236 155q-172 179 -162 444q8 231 203 535q17 28 49 35t60 -10q27 -18 34 -50t-10 -60q-171 -268 -178 -456q-8 -198 118 -329q155 -161 422 -161q126 0 240 51q135 60 209 175q186 289 -63 829q-14 30 -3 61q12 30 41 44q30 14 61 2q30 -11 44 -40
l6 -13l6 -13q8 -16 14 -29l34 -68q45 -86 89 -149q125 -180 241 -180q102 0 133 77q28 70 29 292v51q1 33 24 55q23 23 56 23v0q33 0 56 -23t23 -56q-3 -285 92 -381q36 -37 90 -37q64 0 104 24q14 8 24 19q4 4 7 8l3 4l2 3q49 72 30 227q-16 130 -71 274q-12 31 2 61
q13 30 43 41q31 12 61 -1q30 -14 42 -44l20 -56q12 -37 22 -74q27 -96 38 -182q26 -216 -57 -336q-36 -53 -93 -84q-74 -42 -177 -42q-120 0 -203 84q-22 22 -40 50q-79 -135 -260 -135q-124 0 -239 97q3 -32 4 -64q7 -234 -101 -404q-98 -153 -274 -232q-148 -67 -309 -67
q-159 0 -300 55zM1564 1076q-11 29 -1 59t36 43q292 146 608 87q28 -5 44 -31q17 -26 12 -57q-4 -32 -28 -51q-23 -18 -51 -13q-275 51 -529 -76q-14 -7 -28 -7q-45 0 -63 46zM1865 1431q-51 -9 -88 27q-25 26 -28 63q-3 36 18 66q4 7 10 12q27 24 63 30t68 -9
q33 -16 52 -47t17 -67q-2 -42 -38 -64q-23 -14 -51 -14q-11 0 -23 3z" />
    <glyph glyph-name="uni0634.init" unicode="&#x634;" horiz-adv-x="1658" arabic-form="initial" 
d="M397 84q-28 34 -44 80q-141 -146 -349 -146q-33 0 -56 23t-23 56q0 32 23 56q23 23 56 23q169 0 270 139q38 51 64 120q20 51 31 106q4 21 7 33q5 32 32 51q26 19 58 14q33 -5 52 -32t14 -59q-4 -22 -9 -44l-3 -16l-4 -18l-3 -19q-5 -22 -8 -41q-8 -49 -10 -86
q-7 -101 25 -140l3 -4l5 -5q7 -6 17 -10q28 -14 74 -14q41 0 100 60q66 68 113 171q46 103 51 191l1 27q0 32 23 55t55 23h1q32 0 55 -22q23 -23 24 -55q0 -16 -1 -33l-1 -30v-28q-5 -152 25 -241q35 -104 139 -104q72 0 114 24q15 8 25 18q4 4 8 9l4 6q83 120 -68 514
q-11 31 2 61q13 29 44 41t60 -2q30 -13 42 -44q80 -209 100 -349q28 -198 -49 -310q-87 -126 -282 -126q-98 0 -175 55q-76 54 -111 148q-40 -62 -86 -109q-106 -108 -213 -108q-147 0 -222 91zM552 1076q-11 29 -1 59t36 43q292 146 608 87q28 -5 44 -31q17 -26 12 -57
q-4 -32 -28 -51q-23 -18 -51 -13q-275 51 -529 -76q-14 -7 -28 -7q-45 0 -63 46zM853 1431q-51 -9 -88 27q-25 26 -28 63q-3 36 18 66q4 7 10 12q27 24 63 30t68 -9q33 -16 52 -47t17 -67q-2 -42 -38 -64q-23 -14 -51 -14q-11 0 -23 3z" />
    <glyph glyph-name="uni0634.medi" unicode="&#x634;" horiz-adv-x="1889" arabic-form="medial" 
d="M432 103q-38 46 -57 116q-19 -24 -39 -46q-148 -156 -336 -155q-33 0 -56 23t-23 56t23 56t56 23q122 -1 225 111t154 300q9 31 36 47q28 17 60 9q31 -8 48 -36q17 -27 10 -59q-25 -107 -19 -206q7 -98 41 -141q22 -27 59 -27q86 0 166 93q103 118 147 336q6 32 33 50
t59 12q31 -5 50 -32q19 -26 13 -58q-18 -115 -5 -211q12 -97 53 -144q38 -45 107 -45q57 0 96 42q50 54 72 168q19 100 11 205q-2 31 18 56q20 24 52 28q31 4 57 -15q25 -19 30 -51q37 -224 89 -310q72 -122 229 -122q33 0 56 -23t23 -56q0 -32 -23 -56q-23 -23 -56 -23
q-248 0 -365 199l-5 7q-29 -68 -72 -115q-86 -92 -212 -92q-143 0 -228 100q-39 46 -62 109q-22 -34 -47 -63q-128 -147 -286 -147q-113 0 -182 87zM632 983q-11 29 -1 59t36 43q292 146 608 87q28 -5 44 -31q17 -26 12 -57q-4 -32 -28 -51q-23 -18 -51 -13
q-275 51 -529 -76q-14 -7 -28 -7q-45 0 -63 46zM933 1338q-51 -9 -88 27q-25 26 -28 63q-3 36 18 66q4 7 10 12q27 24 63 30t68 -9q33 -16 52 -47t17 -67q-2 -42 -38 -64q-23 -14 -51 -14q-11 0 -23 3z" />
    <glyph glyph-name="uni0634.fina" unicode="&#x634;" horiz-adv-x="2889" arabic-form="final" 
d="M523 -597q-140 55 -236 155q-172 179 -162 444q8 230 194 520q17 28 49 35t60 -10q28 -18 35 -50t-11 -60q-162 -254 -169 -441q-8 -198 118 -329q155 -161 422 -161q41 0 83 6q59 8 111 26q143 49 223 166q189 275 -25 834q-12 30 1 59q12 30 42 42q29 13 59 1
q30 -11 43 -40l23 -51l22 -52q67 -160 113 -222q63 -87 149 -99q92 -13 144 31q40 34 65 107q34 95 37 248q1 33 25 55q24 23 56 22q33 -1 55 -24t22 -55v-2q-6 -270 78 -356q31 -32 81 -32q58 0 98 44q51 56 72 171q18 101 7 205q-3 33 17 58q21 25 53 29t58 -16
q25 -20 29 -52q38 -278 158 -379q42 -35 93 -48q19 -4 39 -5q8 -1 17 -1h13q33 0 56 -23q23 -24 23 -56q0 -33 -23 -56t-56 -23q-238 0 -365 212q-29 -73 -74 -122q-86 -96 -215 -96q-117 0 -195 80q-30 31 -53 75q-30 -47 -69 -80q-106 -90 -268 -67q-90 12 -162 66
q2 -39 2 -75q-4 -235 -115 -397q-94 -137 -253 -206q-136 -60 -294 -60q-159 0 -300 55zM1626 983q-11 29 -1 59t36 43q292 146 608 87q28 -5 44 -31q17 -26 12 -57q-4 -32 -28 -51q-23 -18 -51 -13q-275 51 -529 -76q-14 -7 -28 -7q-45 0 -63 46zM1927 1338q-51 -9 -88 27
q-25 26 -28 63q-3 36 18 66q4 7 10 12q27 24 63 30t68 -9q33 -16 52 -47t17 -67q-2 -42 -38 -64q-23 -14 -51 -14q-11 0 -23 3z" />
    <glyph glyph-name="uni0636" unicode="&#x636;" horiz-adv-x="2916" arabic-form="isolated" 
d="M2198 152q169 14 296 91q150 91 150 238q0 111 -95 169q-37 22 -84 33q-40 10 -78 10h-1q-205 0 -380 -154q-137 -121 -250 -329q173 -81 442 -58zM466 -552q-137 73 -215 209q-95 168 -79 388q17 215 136 414q17 28 48 36q32 8 60 -9q28 -16 36 -48t-8 -60
q-98 -164 -113 -339t58 -304q114 -202 395 -202q21 0 42 1q29 2 57 5q76 9 143 29q192 57 282 194q171 258 -45 766q-13 30 -2 59q11 30 40 44q28 13 58 4q30 -10 46 -37q115 -209 219 -301q108 198 242 327q233 227 520 227h1q167 0 285 -94q130 -104 130 -276
q0 -236 -226 -373q-93 -57 -213 -87q-43 -12 -88 -19q-33 -5 -63 -8q-434 -36 -680 173q39 -294 -92 -493q-106 -160 -309 -237q-90 -35 -191 -50q-77 -12 -156 -12q-180 0 -318 73zM2499 1260q0 -50 -38 -90q-39 -39 -85 -39q-48 0 -102 38q-38 41 -38 91q0 44 41 86
q42 43 89 43t89 -39q44 -41 44 -90z" />
    <glyph glyph-name="uni0636.init" unicode="&#x636;" horiz-adv-x="1920" arabic-form="initial" 
d="M973 150q44 -5 93 -6q19 -1 40 -1h43q60 0 133 14q90 17 166 50q204 90 237 269q6 30 -5 67q-12 44 -44 80q-34 39 -85 61q-66 29 -156 25q-197 -9 -388 -185q-144 -132 -240 -326q87 -36 206 -48zM562 -145q-32 9 -48 38q-16 28 -7 60q27 94 60 178q-27 22 -49 46
q-35 37 -61 80q-16 -29 -35 -54q-138 -185 -419 -185q-33 0 -56 23t-23 56t23 56t56 23q151 0 237 66q125 94 139 331q0 29 2 58q3 32 27 54q23 21 55 20q33 -1 55 -25q22 -23 21 -55q0 -29 -1 -56q0 -182 95 -284l2 -2q106 208 265 354q233 215 488 227q236 11 368 -140
q52 -60 74 -135q23 -75 11 -144q-45 -246 -299 -372q-110 -54 -242 -77q-47 -8 -93 -12l-34 -2h-72q-24 0 -45 1q-57 2 -107 7q-138 15 -244 60q-25 -67 -45 -140q-8 -26 -29 -42t-48 -16q-10 0 -21 3zM1522 1260q0 -50 -38 -90q-39 -39 -85 -39q-48 0 -102 38
q-38 41 -38 91q0 44 41 86q42 43 89 43t89 -39q44 -41 44 -90z" />
    <glyph glyph-name="uni0636.medi" unicode="&#x636;" horiz-adv-x="1962" arabic-form="medial" 
d="M1403 701q-156 -12 -321 -123q-155 -104 -218 -223q-7 -13 -12 -26q-7 -17 -11 -32q-9 -40 5 -65q27 -47 142 -63q45 -7 100 -8q40 -1 92 1q64 12 131 31q53 15 100 35q60 25 107 56q120 80 136 189q14 95 -48 161q-63 68 -175 68q-14 0 -28 -1zM578 107q-89 69 -142 173
q-12 -23 -25 -44q-63 -99 -159 -153q-105 -59 -248 -65q-33 0 -56 23t-23 56t23 56t56 23q186 6 273 145q73 115 88 324q2 32 26 53q24 22 56 20q32 -1 54 -25q22 -23 22 -55q-6 -284 152 -406l8 -6q-17 94 41 203q84 157 274 283q199 132 393 147q208 15 331 -117
q114 -122 89 -292q-25 -163 -176 -277q175 3 333 3q33 0 56 -23t23 -56t-23 -56t-56 -23q-311 0 -725 -12q-7 0 -28 -1l-19 -1q-108 -19 -207 -19q-253 0 -411 122zM1528 1260q0 -50 -38 -90q-39 -39 -85 -39q-48 0 -102 38q-38 41 -38 91q0 44 41 86q42 43 89 43t89 -39
q44 -41 44 -90z" />
    <glyph glyph-name="uni0636.fina" unicode="&#x636;" horiz-adv-x="2868" arabic-form="final" 
d="M1986 169q374 -13 510 118q69 66 70 175q0 76 -47 140t-125 91q-93 33 -202 6q-42 -11 -84 -30q-33 -16 -65 -35q-190 -117 -303 -331q-18 -34 -26 -58q-3 -9 -4 -16l-1 -5v-4q11 -8 51 -18q15 -4 35 -9l18 -4l16 -3h2q21 -5 43 -8q53 -7 112 -9zM362 -549
q-135 73 -213 211q-100 177 -85 408q15 227 137 431q17 28 48 36q32 8 60 -9t36 -49q8 -31 -8 -60q-101 -167 -115 -355q-14 -187 64 -324q117 -205 387 -205q144 0 274 53q153 62 234 183q179 264 -7 760q-10 23 -18 46q-11 30 2 60q14 29 44 41q30 11 60 -2t42 -43l17 -44
q84 -201 240 -303q12 39 39 91q133 251 360 391q254 157 488 74q124 -44 200 -150q77 -105 76 -231q-1 -174 -115 -285h261q32 0 56 -23q23 -23 23 -56t-23 -56q-24 -23 -56 -23h-94q-303 1 -465 -8q-136 -7 -225 -7q-131 2 -234 18q-214 28 -371 128q-31 20 -61 44
q7 -63 6 -121q-3 -227 -114 -390q-107 -158 -301 -239q-89 -37 -187 -53q-75 -13 -151 -13q-175 0 -311 74zM2483 1260q0 -50 -38 -90q-39 -39 -85 -39q-48 0 -102 38q-38 41 -38 91q0 44 41 86q42 43 89 43t89 -39q44 -41 44 -90z" />
    <glyph glyph-name="uni0638" unicode="&#x638;" horiz-adv-x="1816" arabic-form="isolated" 
d="M1475 371q123 117 96 257q-22 113 -110 145q-82 29 -200 -3q-109 -31 -186 -94q-192 -156 -376 -425q-7 -32 -34 -50l-8 -13q297 -34 525 28q180 49 293 155zM1726 659q44 -227 -142 -403q-142 -133 -360 -193q-285 -77 -659 -22q-34 -57 -68 -119q-23 -41 -69 -41
q-21 0 -39 10q-28 16 -37 47q-9 32 7 61q20 37 41 73q-147 32 -292 80q-31 10 -45 40q-15 29 -5 60q11 31 40 46q29 14 60 4q165 -55 328 -87q31 50 63 97q105 593 17 1166q-4 33 15 59t52 31q32 5 58 -14q27 -20 32 -52q70 -458 22 -930q112 131 230 227q106 86 249 124
q69 19 134 21q86 3 157 -23q72 -26 123 -79q66 -71 88 -183zM1449 1408q0 -50 -38 -90q-39 -39 -85 -39q-48 0 -102 38q-38 41 -38 91q0 44 41 86q42 43 89 43t89 -39q44 -41 44 -90z" />
    <glyph glyph-name="uni0638.init" unicode="&#x638;" horiz-adv-x="1576" arabic-form="initial" 
d="M860 218q458 98 458 354q0 96 -56 151q-56 56 -152 56q-125 0 -265 -102q-106 -77 -214 -208q-103 -125 -201 -291q274 7 430 40zM1110 937q162 0 264 -102t102 -263q0 -228 -211 -367q-138 -91 -372 -142q-190 -40 -551 -45q-31 -58 -58 -116q-21 -46 -72 -46
q-17 0 -33 7q-30 14 -41 45t3 60q11 25 23 50h-163q-33 0 -56 23t-23 56q0 32 23 56q23 23 56 23h246q47 85 96 163q-1 11 1 21q82 440 -20 1109q-5 32 14 59q20 26 52 31t59 -14q26 -20 31 -52q83 -547 56 -892q288 336 574 336zM1217 1408q0 -50 -38 -90q-39 -39 -85 -39
q-48 0 -102 38q-38 41 -38 91q0 44 41 86q42 43 89 43t89 -39q44 -41 44 -90z" />
    <glyph glyph-name="uni0638.medi" unicode="&#x638;" horiz-adv-x="1583" arabic-form="medial" 
d="M945 230q112 22 207 109q104 94 121 209q14 95 -48 161q-63 68 -176 68q-13 0 -27 -1q-148 -12 -316 -138q-156 -118 -229 -255q-55 -103 -28 -151q20 -35 93 -54q195 11 403 52zM1586 176q33 0 56 -23q23 -24 23 -56q0 -33 -23 -56t-56 -23q-326 0 -740 -12
q-8 -1 -28 -1l-22 -1l-25 -1q-28 -1 -53 -1q-84 0 -150 10q-20 3 -39 7q-123 -7 -359 -3h-44l-45 1q-51 1 -93 1q-33 0 -56 23t-23 56q0 32 23 56q23 23 56 23q43 0 95 -1h45l45 -1q86 -1 129 -2q-23 52 -19 115q5 79 54 170l15 26q45 406 -43 981q-5 32 15 59q19 26 51 31
q33 5 59 -15q26 -19 31 -51q73 -473 61 -795q240 221 484 240q207 16 331 -116q113 -122 88 -292q-25 -167 -164 -298q-32 -30 -68 -55q209 4 389 4zM1217 1408q0 -50 -38 -90q-39 -39 -85 -39q-48 0 -102 38q-38 41 -38 91q0 44 41 86q42 43 89 43t89 -39q44 -41 44 -90z
" />
    <glyph glyph-name="uni0638.fina" unicode="&#x638;" horiz-adv-x="1867" arabic-form="final" 
d="M1197 230q112 22 207 109q104 94 121 209q14 95 -48 161q-63 68 -176 68q-13 0 -27 -1q-148 -12 -315 -138q-157 -118 -230 -255q-55 -103 -28 -151q18 -31 77 -50q193 4 419 48zM1870 176q33 0 56 -23q23 -24 23 -56q0 -33 -23 -56t-56 -23q-358 0 -772 -12
q-8 -1 -28 -1l-22 -1l-24 -1q-29 -1 -54 -1q-84 0 -149 10q-33 4 -63 12h-13q-358 0 -656 136q-29 14 -41 44q-11 31 2 61q14 30 45 41q30 11 60 -2q183 -84 391 -110q-37 113 43 263l15 26q46 418 -43 1001q-5 32 15 58q19 27 52 32q32 5 58 -15q27 -19 32 -52
q72 -474 60 -814q240 221 484 240q208 16 331 -116q114 -122 88 -292q-24 -167 -164 -298q-32 -30 -68 -55q232 4 421 4zM1450 1408q0 -50 -38 -90q-39 -39 -85 -39q-48 0 -102 38q-38 41 -38 91q0 44 41 86q42 43 89 43t89 -39q44 -41 44 -90z" />
    <glyph glyph-name="uni063A" unicode="&#x63a;" horiz-adv-x="1532" arabic-form="isolated" 
d="M283 -488q-167 171 -144 409q38 413 444 622q48 25 101 47q-115 61 -173 169q-57 108 -40 232q20 143 122 241q99 95 241 114q140 18 259 -27q117 -45 208 -151q22 -25 19 -57q-2 -33 -27 -54q-25 -22 -57 -20q-33 3 -54 28q-130 150 -327 124q-92 -12 -153 -72
q-62 -60 -74 -148q-13 -89 38 -160q42 -59 116 -91q103 -45 275 -24q99 18 209 30q33 3 58 -17q26 -21 29 -53q4 -32 -16 -58q-21 -26 -53 -29l-55 -8l-54 -8l-47 -7l-47 -6q-252 -46 -426 -135q-328 -170 -359 -497q-15 -165 100 -284q77 -78 195 -116t256 -28
q146 11 303 87q49 24 94 52q14 9 26 17q4 3 7 5l2 1l1 1q26 19 58 15q33 -5 52 -31q20 -27 15 -59t-31 -52l-2 -1l-2 -2q-4 -3 -9 -6q-15 -11 -32 -21q-53 -34 -111 -62q-184 -89 -360 -102q-33 -2 -66 -2q-319 0 -509 194zM1041 1715q0 -50 -38 -90q-39 -39 -85 -39
q-48 0 -102 38q-38 41 -38 91q0 44 41 86q42 43 89 43t89 -39q44 -41 44 -90z" />
    <glyph glyph-name="uni063A.init" unicode="&#x63a;" horiz-adv-x="1138" arabic-form="initial" 
d="M-52 41q-23 23 -23 56t23 56t56 23q202 0 309 3q-37 31 -65 69q-87 114 -83 257q4 135 90 243q87 109 224 149q145 43 285 -2q97 -32 202 -111q26 -20 30 -52q5 -32 -15 -59q-20 -26 -52 -30q-33 -5 -59 15q-95 72 -177 93t-168 -5q-88 -26 -144 -94t-58 -152
q-2 -86 50 -156t142 -101q98 -34 232 -19q52 5 118 19l58 13l57 14q31 8 59 -9q28 -16 36 -47q8 -32 -8 -60t-47 -37q-234 -65 -483 -85q-175 -14 -533 -14q-33 0 -56 23zM721 1315q0 -50 -38 -90q-39 -39 -85 -39q-48 0 -102 38q-38 41 -38 91q0 44 41 86q42 43 89 43
t89 -39q44 -41 44 -90z" />
    <glyph glyph-name="uni063A.medi" unicode="&#x63a;" horiz-adv-x="1169" arabic-form="medial" 
d="M621 333q143 93 228 210q65 89 40 146q-12 29 -53 45q-16 7 -35 11q-15 4 -31 6q-237 29 -471 -89q160 -218 322 -329zM619 148q-34 -18 -69 -34q-219 -96 -551 -96q-33 0 -56 23t-23 56t23 56t56 23q286 0 467 74q-172 136 -348 394q-19 28 -12 62q7 33 37 51
q320 191 646 151q108 -14 176 -67q26 -21 45 -46q14 -20 24 -43q61 -139 -57 -302q-79 -110 -201 -202q172 -72 388 -72q33 0 56 -23t23 -56t-23 -56t-56 -23q-307 0 -545 130zM748 1314q0 -50 -38 -90q-39 -39 -85 -39q-48 0 -102 38q-38 41 -38 91q0 44 41 86q42 43 89 43
t89 -39q44 -41 44 -90z" />
    <glyph glyph-name="uni063A.fina" unicode="&#x63a;" horiz-adv-x="1357" arabic-form="final" 
d="M743 469l14 6l49 22q190 85 304 197q42 41 33 79q-4 16 -18 27q-12 9 -29 15q-71 25 -188 16q-41 -3 -87 -10l-34 -6l-14 -3l-12 -2q-141 -28 -265 -89q122 -143 247 -252zM421 -675q-181 106 -254 301q-77 205 11 397q102 220 410 373q-142 133 -276 298q-22 28 -16 63
t36 54q176 110 398 154q114 23 201 26q127 5 218 -27q123 -43 148 -156q13 -59 -7 -119t-69 -108q-74 -73 -180 -138q-42 -26 -87 -50q-36 -19 -72 -36l17 -12q124 -93 194 -122q108 -46 269 -46q33 0 56 -24q24 -23 24 -55q0 -33 -24 -56q-23 -24 -56 -24q-194 0 -333 60
q-86 37 -225 140l-31 24q-28 20 -55 42q-148 -69 -233 -133q-113 -86 -163 -194q-64 -137 -3 -285q56 -136 182 -210q149 -88 340 -73t381 128q29 17 60 9q32 -8 49 -37q17 -28 9 -59q-8 -32 -37 -49q-255 -152 -514 -152q-204 0 -368 96zM960 1405q0 -50 -38 -90
q-39 -39 -85 -39q-48 0 -102 38q-38 41 -38 91q0 44 41 86q42 43 89 43t89 -39q44 -41 44 -90z" />
    <glyph glyph-name="uni06A9.init" unicode="&#x6a9;" horiz-adv-x="1147" arabic-form="initial" 
d="M0 18q-33 0 -56 23t-23 56t23 56t56 23h41l46 1q53 0 97 3q111 7 190 27q176 47 240 181q64 137 -117 356q-157 191 -350 293q-29 16 -39 47t6 60q15 29 46 39q32 9 61 -6q91 -48 196 -134q119 -96 206 -202q240 -294 134 -520q-95 -202 -343 -267q-92 -24 -214 -31
q-48 -3 -106 -4l-50 -1h-44zM-59 1282q-11 31 4 60q14 30 45 40q642 223 992 520q25 21 58 18q32 -3 54 -28q21 -25 18 -57q-3 -33 -28 -54q-234 -199 -513 -336q-196 -96 -529 -212q-13 -4 -26 -4q-56 0 -75 53z" />
    <glyph glyph-name="uni06A9.medi" unicode="&#x6a9;" horiz-adv-x="1125" arabic-form="medial" 
d="M1125 176q33 0 56 -23t23 -56t-23 -56t-56 -23q-272 -6 -501 287q-14 -44 -39 -82q-70 -106 -222 -157q-144 -48 -364 -48q-33 0 -56 23t-23 56q0 32 23 56q23 23 56 23q365 0 454 134q63 96 -16 281l-4 12q-63 114 -186 365l-53 109q-15 30 -4 61q10 31 39 45
q30 15 61 4q31 -10 45 -40l54 -109q216 -440 333 -601q195 -267 403 -261zM59 1226q-56 0 -74 53q-11 31 3 61q14 29 45 40q612 212 1040 574q25 21 58 19q32 -3 54 -28q21 -25 18 -58q-3 -32 -28 -53q-450 -382 -1090 -604q-12 -4 -26 -4z" />
    <glyph glyph-name="uni0641" unicode="&#x641;" horiz-adv-x="1982" arabic-form="isolated" 
d="M1442 950q-49 -16 -88 -75q-40 -59 -53 -137q-18 -102 42 -151q57 -46 165 -49q100 -4 189 29q-1 94 -34 184q-33 94 -90 150q-53 53 -103 53q-14 0 -28 -4zM959 26q-198 0 -379 33q-281 52 -388 187q-114 143 -94 307q18 147 143 289q22 24 55 26q32 2 57 -20
q24 -21 26 -54t-19 -57q-188 -212 -45 -392q60 -76 234 -118q184 -43 410 -43h73q48 1 90 3q112 5 201 20q248 43 327 164q7 10 13 22q-116 -24 -224 -8q-120 17 -196 80q-55 45 -82 109q-35 83 -16 191q21 123 89 215q68 91 160 120q26 9 53 11q35 3 69 -3q90 -16 169 -95
q131 -131 163 -353q31 -227 -66 -376q-110 -169 -404 -227q-104 -20 -236 -27q-48 -3 -102 -4h-81zM1615 1483q0 -50 -38 -90q-39 -39 -85 -39q-48 0 -102 38q-38 41 -38 91q0 44 41 86q42 43 89 43t89 -39q44 -41 44 -90z" />
    <glyph glyph-name="uni0641.init" unicode="&#x641;" horiz-adv-x="932" arabic-form="initial" 
d="M435 942q-48 -16 -88 -75q-39 -59 -53 -137q-17 -102 43 -151q56 -46 165 -49q100 -4 188 29q-1 94 -33 184q-34 94 -90 150q-53 53 -103 53q-15 0 -29 -4zM-56 41q-23 23 -23 56t23 56t56 23h71q45 1 84 3q103 5 185 20q224 43 303 164q7 10 13 22q-115 -24 -223 -8
q-120 17 -197 80q-55 45 -81 109q-35 83 -17 191q22 123 90 215q67 91 160 120q25 9 53 11q34 3 69 -3q90 -16 168 -95q132 -131 163 -353q32 -227 -65 -376q-111 -169 -380 -227q-91 -19 -204 -26q-76 -5 -192 -5q-33 0 -56 23zM549 1483q0 -50 -38 -90q-39 -39 -85 -39
q-48 0 -102 38q-38 41 -38 91q0 44 41 86q42 43 89 43t89 -39q44 -41 44 -90z" />
    <glyph glyph-name="uni0641.medi" unicode="&#x641;" horiz-adv-x="1001" arabic-form="medial" 
d="M421 727q-42 -32 -72 -86q-37 -69 -39 -143q-1 -74 35 -128q51 -79 149 -124q94 45 146 123q37 56 37 139q0 82 -38 152q-7 15 -17 28q-13 18 -28 32q-40 38 -87 38q-43 0 -86 -31zM926 18q-60 1 -110 4q-125 6 -221 26q-53 12 -100 27q-109 -37 -262 -50q-60 -4 -134 -6
l-66 -1h-37q-33 0 -56 23t-23 56t23 56t56 23h3l51 1l81 1q91 3 161 12q-46 41 -80 93q-63 97 -59 221q3 111 57 212q51 94 130 147t167 53q83 0 154 -47t118 -134q59 -110 57 -235t-64 -219q-33 -50 -77 -90q74 -10 170 -13q37 -1 84 -2h53q32 0 56 -23q23 -23 23 -56
t-23 -56q-24 -23 -56 -23h-76zM622 1333q0 -50 -38 -90q-39 -39 -85 -39q-48 0 -102 38q-38 41 -38 91q0 44 41 86q42 43 89 43t89 -39q44 -41 44 -90z" />
    <glyph glyph-name="uni0641.fina" unicode="&#x641;" horiz-adv-x="2106" arabic-form="final" 
d="M1479 674q-62 -84 -62 -186q0 -161 175 -237q167 83 184 245q14 129 -63 215q-43 47 -95 47q-76 0 -139 -84zM926 -2q-16 0 -33 1q-43 1 -86 4q-82 9 -190 29q-306 60 -422 206q-114 143 -94 307q18 147 143 288q22 25 55 27q32 2 57 -20q24 -22 26 -54q2 -33 -19 -57
q-188 -213 -45 -392q69 -87 269 -137q183 -43 358 -44h5q277 0 444 32q-135 116 -135 300q0 159 98 287q109 141 261 141q123 0 213 -100q57 -64 85 -154q27 -91 17 -183q-18 -169 -142 -282q138 -21 318 -21q33 0 56 -23t23 -56t-23 -56t-56 -23q-132 0 -239 10
q-151 14 -276 53q-41 -16 -87 -28q-128 -36 -298 -48q-64 -4 -138 -6q-28 0 -61 -1h-84zM1756 1353q0 -50 -38 -90q-39 -39 -85 -39q-48 0 -102 38q-38 41 -38 91q0 44 41 86q42 43 89 43t89 -39q44 -41 44 -90z" />
    <glyph glyph-name="uni0642.init" unicode="&#x642;" horiz-adv-x="932" arabic-form="initial" 
d="M435 942q-48 -16 -88 -75q-39 -59 -53 -137q-17 -102 43 -151q56 -46 165 -49q100 -4 188 29q-1 94 -33 184q-34 94 -90 150q-53 53 -103 53q-15 0 -29 -4zM-56 41q-23 23 -23 56t23 56t56 23h71q45 1 84 3q103 5 185 20q224 43 303 164q7 10 13 22q-115 -24 -223 -8
q-120 17 -197 80q-55 45 -81 109q-35 83 -17 191q22 123 90 215q67 91 160 120q25 9 53 11q34 3 69 -3q90 -16 168 -95q132 -131 163 -353q32 -227 -65 -376q-111 -169 -380 -227q-91 -19 -204 -26q-76 -5 -192 -5q-33 0 -56 23zM77 1389q-15 29 -5 61q10 31 39 46
q184 95 402 83q70 -4 135 -18q21 -5 40 -10q6 -2 12 -3l3 -2h2q31 -11 45 -40t4 -60q-11 -31 -40 -46q-28 -14 -59 -4h-1l-2 1q-4 1 -9 3q-14 3 -31 7q-52 11 -108 14q-177 9 -322 -66q-17 -9 -36 -9q-48 0 -69 43z" />
    <glyph glyph-name="uni0642.medi" unicode="&#x642;" horiz-adv-x="1001" arabic-form="medial" 
d="M421 727q-42 -32 -72 -86q-37 -69 -39 -143q-1 -74 35 -128q51 -79 149 -124q94 45 146 123q37 56 37 139q0 82 -38 152q-7 15 -17 28q-13 18 -28 32q-40 38 -87 38q-43 0 -86 -31zM926 18q-60 1 -110 4q-125 6 -221 26q-53 12 -100 27q-109 -37 -262 -50q-60 -4 -134 -6
l-66 -1h-37q-33 0 -56 23t-23 56t23 56t56 23h3l51 1l81 1q91 3 161 12q-46 41 -80 93q-63 97 -59 221q3 111 57 212q51 94 130 147t167 53q83 0 154 -47t118 -134q59 -110 57 -235t-64 -219q-33 -50 -77 -90q74 -10 170 -13q37 -1 84 -2h53q32 0 56 -23q23 -23 23 -56
t-23 -56q-24 -23 -56 -23h-76zM149 1221q-15 29 -5 61q10 31 39 46q184 95 402 83q70 -4 135 -18q21 -5 40 -10q6 -2 12 -3l3 -2h2q31 -11 45 -40t4 -60q-11 -31 -40 -46q-28 -14 -59 -4h-1l-2 1q-4 1 -9 3q-14 3 -31 7q-52 11 -108 14q-177 9 -322 -66q-17 -9 -36 -9
q-48 0 -69 43z" />
    <glyph glyph-name="uni0642" unicode="&#x642;" horiz-adv-x="1581" arabic-form="isolated" 
d="M276 -436q-167 168 -167 409q0 287 168 495q20 25 53 29q32 3 58 -17q25 -21 29 -53q3 -33 -17 -59q-133 -164 -133 -395q0 -176 121 -297q146 -146 397 -146q245 0 392 149q171 174 167 467v2q0 163 -81 329q-94 192 -222 192q-72 0 -127 -56q-83 -85 -80 -234
q2 -85 69 -142q109 -92 300 -63q32 5 59 -14q26 -20 31 -52t-15 -59q-19 -26 -52 -31q-124 -19 -235 7q-112 25 -190 91q-122 103 -125 260q-5 215 125 348q102 103 240 103q121 0 221 -85q80 -69 138 -186q52 -103 79 -225q23 -101 23 -183q2 -171 -53 -323
q-56 -151 -159 -257q-194 -196 -505 -196q-317 0 -509 192zM669 1149q-15 29 -5 61q10 31 39 46q184 95 402 83q70 -4 135 -18q21 -5 40 -10q6 -2 12 -3l3 -2h2q31 -11 45 -40t4 -60q-11 -31 -40 -46q-28 -14 -59 -4h-1l-2 1q-4 1 -9 3q-14 3 -31 7q-52 11 -108 14
q-177 9 -322 -66q-17 -9 -36 -9q-48 0 -69 43z" />
    <glyph glyph-name="uni0642.fina" unicode="&#x642;" horiz-adv-x="1570" arabic-form="final" 
d="M911 612q-83 -85 -79 -232q3 -102 75 -149q87 -56 306 -56h128q-9 166 -88 318q-92 176 -214 176q-73 0 -128 -57zM275 -435q-167 168 -167 409q0 287 168 495q20 25 53 29q32 3 58 -17q25 -21 29 -53q3 -33 -17 -59q-133 -164 -133 -395q0 -176 121 -297
q146 -146 396 -146q246 0 393 149q127 129 158 338h-120q-236 0 -361 64q-173 88 -178 294q-6 215 124 348q102 104 241 104q121 0 221 -85q80 -69 138 -186q48 -95 75 -205q22 -93 26 -176h68q33 0 56 -23t23 -56t-23 -56t-56 -23h-74q-34 -275 -205 -449
q-194 -196 -506 -196q-316 0 -508 192zM694 1149q-15 29 -5 61q10 31 39 46q184 95 402 83q70 -4 135 -18q21 -5 40 -10q6 -2 12 -3l3 -2h2q31 -11 45 -40t4 -60q-11 -31 -40 -46q-28 -14 -59 -4h-1l-2 1q-4 1 -9 3q-14 3 -31 7q-52 11 -108 14q-177 9 -322 -66
q-17 -9 -36 -9q-48 0 -69 43z" />
    <glyph glyph-name="uni0646.init" unicode="&#x646;" horiz-adv-x="715" arabic-form="initial" 
d="M-2 18q-33 0 -56 23t-23 56t23 56t56 23q185 0 271 19q121 27 169 105q37 62 11 205q-25 143 -102 303q-15 29 -4 60t40 45q30 15 61 4t45 -40q83 -173 114 -335q40 -209 -30 -324q-81 -132 -258 -175q-68 -17 -159 -22q-36 -2 -80 -3h-78zM428 1258q0 -50 -38 -90
q-39 -39 -85 -39q-48 0 -102 38q-38 41 -38 91q0 44 41 86q42 43 89 43t89 -39q44 -41 44 -90z" />
    <glyph glyph-name="uni0646.medi" unicode="&#x646;" horiz-adv-x="748" arabic-form="medial" 
d="M741 176q33 0 56 -23t23 -56t-23 -56t-56 -23q-83 0 -151 30q-87 39 -143 126q-11 -16 -23 -30q-68 -75 -190 -104q-90 -22 -237 -22q-33 0 -56 23t-23 56t23 56t56 23q243 0 309 74q62 69 44 243q-3 31 -7 69l-2 33l-3 32q-3 43 -5 63q-3 32 18 58q21 25 53 28
q33 3 58 -18t28 -54q2 -20 6 -65q18 -235 58 -330q55 -133 187 -133zM427 1089q0 -50 -38 -90q-39 -39 -85 -39q-48 0 -102 38q-38 41 -38 91q0 44 41 86q42 43 89 43t89 -39q44 -41 44 -90z" />
    <glyph glyph-name="uni0646" unicode="&#x646;" horiz-adv-x="1630" arabic-form="isolated" 
d="M269 -464q-163 164 -163 400q0 131 51 274q50 143 132 245q21 25 54 29q32 3 58 -18q25 -20 29 -53q3 -32 -17 -58q-66 -81 -107 -198q-42 -117 -42 -221q0 -171 117 -288q147 -147 404 -147q324 0 456 182q91 126 93 341t-86 480q-10 32 5 61t46 39q31 11 60 -4t40 -46
q35 -106 57 -210q29 -133 35 -253q15 -310 -122 -500q-179 -248 -584 -248q-323 0 -516 193zM949 650q0 -50 -38 -90q-39 -39 -85 -39q-48 0 -102 38q-38 41 -38 91q0 44 41 86q42 43 89 43t89 -39q44 -41 44 -90z" />
    <glyph glyph-name="uni0646.fina" unicode="&#x646;" horiz-adv-x="1728" arabic-form="final" 
d="M1732 176q33 0 56 -23t23 -56t-23 -56t-56 -23q-81 0 -140 16q-82 22 -149 77q2 -27 3 -49q10 -281 -114 -464q-86 -127 -232 -194q-151 -70 -361 -70q-323 0 -516 193q-163 164 -163 400q0 131 51 274q50 143 132 245q21 25 54 29q32 3 58 -18q25 -20 29 -53
q3 -32 -17 -58q-66 -81 -107 -198q-42 -117 -42 -221q0 -171 117 -288q147 -147 404 -147q330 0 462 195q95 140 87 369q-9 215 -104 455l-1 2l-1 4l-1 3l-1 5v3l-1 4v19l2 8l1 3l2 8l2 3l2 4l1 3l2 3l3 3l4 6l6 6l3 2l3 3l9 6l8 4h1l3 1l4 2l3 1h4l8 2h15l4 -1h4l4 -1l3 -1
l4 -1l3 -2l4 -1l6 -4l4 -2l3 -2l3 -2l3 -3l3 -2l2 -3l3 -3l2 -3l3 -3l2 -4l2 -3l3 -6q114 -253 209 -335q70 -61 193 -61zM897 650q0 -50 -38 -90q-39 -39 -85 -39q-48 0 -102 38q-38 41 -38 91q0 44 41 86q42 43 89 43t89 -39q44 -41 44 -90z" />
    <glyph glyph-name="uni06C0" unicode="&#x6c0;" horiz-adv-x="993" arabic-form="isolated" 
d="M232 111q-113 98 -113 256q0 97 52 199q20 39 48 82q11 16 25 35l12 17l11 15q21 28 28 39q18 27 50 33q32 7 59 -11q28 -18 34 -51q6 -32 -12 -59q-9 -14 -32 -45l-9 -13l-10 -13l-20 -28q-22 -34 -38 -62q-40 -75 -40 -138q0 -91 65 -142q58 -46 144 -46q29 0 65 8
q45 10 82 28q99 52 99 152q0 129 -140 310q-127 165 -256 238q-28 17 -37 48q-9 32 8 60q16 29 47 37q32 9 60 -7q156 -89 303 -278q73 -94 116 -185q57 -120 57 -223q0 -175 -152 -273q-114 -73 -252 -73q-151 0 -254 90zM229 1156q-17 0 -29 12q-13 11 -14 29t11 31
q12 14 30 15q52 3 114 28q69 28 96 64q8 11 11 22q1 7 -1 15q-4 20 -90 33l-24 4l-23 5q-26 5 -44 14q-61 28 -60 92q3 96 84 170q51 45 122 71q70 25 134 20q18 -2 30 -16q12 -13 10 -31q-1 -18 -15 -30t-32 -10q-46 4 -100 -16q-53 -19 -91 -53q-22 -20 -36 -44
q-18 -30 -19 -63q0 -7 9 -12q11 -4 30 -8l19 -4l19 -3l24 -3l25 -5q28 -7 49 -16q53 -25 64 -77q13 -57 -26 -108q-40 -53 -130 -90q-77 -31 -144 -36h-3z" />
    <glyph glyph-name="uni06C0.fina" unicode="&#x6c0;" horiz-adv-x="1133" arabic-form="final" 
d="M743 243q-36 77 -58 187q-8 43 -16 98l-12 96q-14 113 -23 155q-6 24 -12 40q-2 7 -5 12q-2 4 -4 7q-5 -2 -13 -5q-153 -70 -282 -237q-126 -163 -105 -262q10 -51 82 -75q54 -18 139 -19q33 0 56 -24q23 -23 22 -56q0 -33 -24 -56q-23 -22 -56 -22q-158 2 -252 56
q-100 57 -122 163q-21 99 32 221q20 47 50 96q24 38 52 75q153 198 343 284q49 22 93 20q33 -2 61 -18q61 -34 89 -127q17 -58 36 -209q29 -242 74 -336q63 -131 203 -131q33 0 56 -23t23 -56t-23 -56t-56 -23q-242 0 -348 225zM343 1103q-17 0 -29 12q-13 11 -14 29t11 31
q12 14 30 15q52 3 114 28q69 28 96 64q8 11 11 22q1 7 -1 15q-4 20 -90 33l-24 4l-23 5q-26 5 -44 14q-61 28 -60 92q3 96 84 170q51 45 122 71q70 25 134 20q18 -2 30 -16q12 -13 10 -31q-1 -18 -15 -30t-32 -10q-46 4 -100 -16q-53 -19 -91 -53q-22 -20 -36 -44
q-18 -30 -19 -63q0 -7 9 -12q11 -4 30 -8l19 -4l19 -3l24 -3l25 -5q28 -7 49 -16q53 -25 64 -77q13 -57 -26 -108q-40 -53 -130 -90q-77 -31 -144 -36h-3z" />
    <glyph glyph-name="uni0624" unicode="&#x624;" horiz-adv-x="1068" arabic-form="isolated" 
d="M147 -647q-22 17 -28 45q-7 32 10 59q18 28 50 35q247 56 428 241q200 204 200 464q0 151 -77 299q-92 174 -227 174q-72 0 -127 -56q-83 -85 -80 -234q2 -85 69 -142q109 -91 300 -62q32 5 58 -15q27 -19 32 -52q5 -32 -15 -58q-19 -27 -52 -32q-124 -19 -236 7
q-111 26 -189 91q-122 103 -125 260q-5 215 125 348q102 103 240 103q107 0 200 -63t158 -181q53 -96 81 -209q23 -96 23 -178q0 -317 -233 -564q-213 -227 -518 -295q-9 -2 -18 -2q-27 0 -49 17zM211 929q-9 16 -4 33q4 17 20 26l172 99q-25 7 -46 20q-46 28 -71 79
q-25 52 -20 107q11 112 113 170q91 52 198 21q17 -5 26 -20q9 -16 4 -33q-5 -18 -21 -26q-16 -9 -33 -4q-72 20 -131 -14q-63 -35 -69 -102q-3 -31 11 -60q13 -29 38 -44q24 -15 58 -16q13 -1 26 0q11 1 22 4q27 5 61 19l31 14l29 14q16 8 33 2q17 -5 25 -21q8 -15 3 -32
t-20 -26l-396 -226q-10 -6 -21 -6q-26 0 -38 22z" />
    <glyph glyph-name="uni0624.fina" unicode="&#x624;" horiz-adv-x="1043" arabic-form="final" 
d="M390 614q-84 -85 -81 -234l1 -10l1 -13q1 -16 5 -30q10 -38 39 -67q82 -83 304 -83q34 0 161 -1l1 21q0 151 -78 299q-91 174 -227 174q-71 0 -126 -56zM161 -647q-22 17 -28 45q-8 32 10 59q17 28 49 35q200 45 365 182q177 147 237 344h-135q-288 0 -416 130
q-49 49 -72 117q-18 52 -20 112q-4 215 126 348q101 103 239 103q108 0 201 -63q92 -63 158 -181q53 -96 80 -209q24 -96 24 -178l-1 -21h62q33 0 56 -23q23 -24 23 -56q0 -33 -23 -56t-56 -23h-82q-50 -213 -212 -385q-213 -227 -519 -295q-9 -2 -17 -2q-28 0 -49 17z
M211 929q-9 16 -4 33q4 17 20 26l172 99q-25 7 -46 20q-46 28 -71 79q-25 52 -20 107q11 112 113 170q91 52 198 21q17 -5 26 -20q9 -16 4 -33q-5 -18 -21 -26q-16 -9 -33 -4q-72 20 -131 -14q-63 -35 -69 -102q-3 -31 11 -60q13 -29 38 -44q24 -15 58 -16q13 -1 26 0
q11 1 22 4q27 5 61 19l31 14l29 14q16 8 33 2q17 -5 25 -21q8 -15 3 -32t-20 -26l-396 -226q-10 -6 -21 -6q-26 0 -38 22z" />
    <glyph glyph-name="uni0649.init" unicode="&#x649;" horiz-adv-x="723" arabic-form="initial" 
d="M-2 18q-33 0 -56 23t-23 56t23 56t56 23q185 0 271 19q121 27 169 105q37 62 11 205q-25 143 -102 303q-15 29 -4 60t40 45q30 15 61 4t45 -40q83 -173 114 -335q40 -209 -30 -324q-81 -132 -258 -175q-68 -17 -159 -22q-36 -2 -80 -3h-78z" />
    <glyph glyph-name="uni0649.medi" unicode="&#x649;" horiz-adv-x="748" arabic-form="medial" 
d="M741 176q33 0 56 -23t23 -56t-23 -56t-56 -23q-83 0 -151 30q-87 39 -143 126q-11 -16 -23 -30q-68 -75 -190 -104q-90 -22 -237 -22q-33 0 -56 23t-23 56t23 56t56 23q243 0 309 74q62 69 44 243q-3 31 -7 69l-2 33l-3 32q-3 43 -5 63q-3 32 18 58q21 25 53 28
q33 3 58 -18t28 -54q2 -20 6 -65q18 -235 58 -330q55 -133 187 -133z" />
    <glyph glyph-name="uni064A.init" unicode="&#x64a;" horiz-adv-x="838" arabic-form="initial" 
d="M-1 18q-33 0 -56 23t-23 56t23 56t56 23q264 0 350 19q121 27 169 105q37 62 11 205q-25 143 -102 303q-15 29 -4 60t40 45q30 15 61 4t45 -40q83 -173 114 -335q40 -209 -30 -324q-81 -132 -258 -175q-68 -17 -159 -22q-36 -2 -80 -3h-157zM9 -406q-11 29 -1 59t35 43
q287 146 597 87q27 -5 43 -31q17 -26 12 -57q-4 -32 -27 -51q-23 -18 -50 -13q-270 51 -520 -76q-13 -7 -27 -7q-44 0 -62 46z" />
    <glyph glyph-name="uni064A.medi" unicode="&#x64a;" horiz-adv-x="852" arabic-form="medial" 
d="M851 176q33 0 56 -23t23 -56t-23 -56t-56 -23q-83 0 -151 30q-87 39 -143 126q-11 -16 -23 -30q-68 -75 -190 -104q-90 -22 -344 -22q-33 0 -56 23t-23 56t23 56t56 23q350 0 416 70q68 54 45 247q-16 177 -18 197q-3 32 18 58q21 25 53 28q33 3 58 -18t28 -54
q2 -20 6 -65q18 -235 58 -330q55 -133 187 -133zM13 -406q-11 29 -1 59t35 43q287 146 597 87q27 -5 43 -31q17 -26 12 -57q-4 -32 -27 -51q-23 -18 -50 -13q-270 51 -520 -76q-13 -7 -27 -7q-44 0 -62 46z" />
    <glyph glyph-name="uni064A" unicode="&#x64a;" horiz-adv-x="1793" arabic-form="isolated" 
d="M422 -608q-318 161 -333 524q-7 154 44 329q38 133 106 270q15 29 46 39q31 11 60 -4q30 -15 40 -46t-4 -60q-144 -288 -134 -521q11 -270 247 -390q202 -102 471 -43t404 236q27 35 40 62q5 10 8 18q3 6 3 11q-2 1 -5 3q-4 1 -9 3q-12 5 -29 9q-33 8 -117 19l-61 8
q-34 5 -61 10q-67 13 -113 34q-84 37 -120 103q-27 51 -26 115q3 133 67 261q64 129 177 230q113 102 247 154q135 51 260 41q33 -2 54 -27q22 -25 19 -58q-3 -32 -28 -54q-25 -21 -57 -18q-92 7 -197 -34q-105 -42 -192 -121q-186 -168 -192 -378q-1 -48 56 -72
q49 -20 187 -37q109 -14 155 -28l6 -1l6 -2q8 -3 15 -6q21 -7 38 -18q49 -28 68 -75q24 -59 -5 -133q-20 -51 -69 -115q-171 -225 -495 -296q-106 -23 -213 -23q-204 0 -364 81zM444 -1062q-11 29 -1 59t35 43q287 146 597 87q27 -5 43 -31q17 -26 12 -57q-4 -32 -27 -51
q-23 -18 -50 -13q-270 51 -520 -76q-13 -7 -27 -7q-44 0 -62 46z" />
    <glyph glyph-name="uni064A.fina" unicode="&#x64a;" horiz-adv-x="1715" arabic-form="final" 
d="M510 -596q-172 55 -275 162q-146 152 -136 386q4 99 39 246q13 58 34 131l36 128q18 59 26 86q8 32 37 48t60 7q32 -9 48 -37q16 -29 7 -61q-8 -27 -26 -88l-8 -28l-9 -29l-17 -61q-19 -68 -32 -122q-34 -141 -37 -227q-7 -166 92 -270q79 -81 220 -124q117 -36 239 -36
q237 0 424 91q77 36 121 81q44 44 44 84q0 26 -52 67q-29 23 -78 52l-45 25l-46 25l-90 50q-49 28 -82 53q-36 26 -54 46q-26 29 -29 61q-2 12 0 24q2 10 6 18q18 44 69 55q19 4 42 3h19l16 -2q41 -3 159 -22l52 -8q31 -5 57 -9q65 -9 120 -16q145 -17 256 -17q33 0 56 -23
t23 -56t-23 -56t-56 -23q-99 0 -219 12q-89 9 -258 41q179 -84 235 -136q80 -76 80 -164q0 -178 -238 -300q-223 -114 -509 -114q-154 0 -298 47zM429 -1037q-11 29 -1 59t35 43q287 146 597 87q27 -5 43 -31q17 -26 12 -57q-4 -32 -27 -51q-23 -18 -50 -13
q-270 51 -520 -76q-13 -7 -27 -7q-44 0 -62 46z" />
    <glyph glyph-name="uni06CC" unicode="&#x6cc;" horiz-adv-x="1793" arabic-form="isolated" 
d="M422 -608q-318 161 -333 524q-7 154 44 329q38 133 106 270q15 29 46 39q31 11 60 -4q30 -15 40 -46t-4 -60q-144 -288 -134 -521q11 -270 247 -390q202 -102 471 -43t404 236q27 35 40 62q5 10 8 18q3 6 3 11q-2 1 -5 3q-4 1 -9 3q-12 5 -29 9q-33 8 -117 19l-61 8
q-34 5 -61 10q-67 13 -113 34q-84 37 -120 103q-27 51 -26 115q3 133 67 261q64 129 177 230q113 102 247 154q135 51 260 41q33 -2 54 -27q22 -25 19 -58q-3 -32 -28 -54q-25 -21 -57 -18q-92 7 -197 -34q-105 -42 -192 -121q-186 -168 -192 -378q-1 -48 56 -72
q49 -20 187 -37q109 -14 155 -28l6 -1l6 -2q8 -3 15 -6q21 -7 38 -18q49 -28 68 -75q24 -59 -5 -133q-20 -51 -69 -115q-171 -225 -495 -296q-106 -23 -213 -23q-204 0 -364 81z" />
    <glyph glyph-name="uni06CC.init" unicode="&#x6cc;" horiz-adv-x="843" arabic-form="initial" 
d="M-1 18q-33 0 -56 23t-23 56t23 56t56 23q264 0 350 19q121 27 169 105q37 62 11 205q-25 143 -102 303q-15 29 -4 60t40 45q30 15 61 4t45 -40q83 -173 114 -335q40 -209 -30 -324q-81 -132 -258 -175q-68 -17 -159 -22q-36 -2 -80 -3h-157zM11 -406q-11 29 -1 59t35 43
q287 146 597 87q27 -5 43 -31q17 -26 12 -57q-4 -32 -27 -51q-23 -18 -50 -13q-270 51 -520 -76q-13 -7 -27 -7q-44 0 -62 46z" />
    <glyph glyph-name="uni06CC.medi" unicode="&#x6cc;" horiz-adv-x="852" arabic-form="medial" 
d="M851 176q33 0 56 -23t23 -56t-23 -56t-56 -23q-83 0 -151 30q-87 39 -143 126q-11 -16 -23 -30q-68 -75 -190 -104q-90 -22 -344 -22q-33 0 -56 23t-23 56t23 56t56 23q350 0 416 70q68 54 45 247q-16 177 -18 197q-3 32 18 58q21 25 53 28q33 3 58 -18t28 -54
q2 -20 6 -65q18 -235 58 -330q55 -133 187 -133zM11 -406q-11 29 -1 59t35 43q287 146 597 87q27 -5 43 -31q17 -26 12 -57q-4 -32 -27 -51q-23 -18 -50 -13q-270 51 -520 -76q-13 -7 -27 -7q-44 0 -62 46z" />
    <glyph glyph-name="uni06CC.fina" unicode="&#x6cc;" horiz-adv-x="1715" arabic-form="final" 
d="M510 -596q-172 55 -275 162q-146 152 -136 386q4 99 39 246q13 58 34 131l36 128q18 59 26 86q8 32 37 48t60 7q32 -9 48 -37q16 -29 7 -61q-8 -27 -26 -88l-8 -28l-9 -29l-17 -61q-19 -68 -32 -122q-34 -141 -37 -227q-7 -166 92 -270q79 -81 220 -124q117 -36 239 -36
q237 0 424 91q77 36 121 81q44 44 44 84q0 26 -52 67q-29 23 -78 52l-45 25l-46 25l-90 50q-49 28 -82 53q-36 26 -54 46q-26 29 -29 61q-2 12 0 24q2 10 6 18q18 44 69 55q19 4 42 3h19l16 -2q41 -3 159 -22l52 -8q31 -5 57 -9q65 -9 120 -16q145 -17 256 -17q33 0 56 -23
t23 -56t-23 -56t-56 -23q-99 0 -219 12q-89 9 -258 41q179 -84 235 -136q80 -76 80 -164q0 -178 -238 -300q-223 -114 -509 -114q-154 0 -298 47z" />
    <glyph glyph-name="uni06D3" unicode="&#x6d3;" horiz-adv-x="1655" arabic-form="isolated" 
d="M1100 -455q-537 0 -720 21q-227 26 -288 112q-19 28 -25 60q-7 43 10 90q59 166 268 257q210 91 534 91h128q33 0 56 -23t23 -56t-23 -56t-56 -23h-128q-263 0 -438 -66q-175 -65 -215 -177q-2 -4 -3 -7l6 -4q4 -3 9 -5q14 -7 36 -14q63 -17 176 -27q177 -15 650 -15h476
q32 0 56 -23q23 -23 23 -56t-23 -56q-24 -23 -56 -23h-476zM118 295q-9 16 -4 33q4 17 20 26l172 99q-25 7 -46 20q-46 28 -71 79q-25 52 -20 107q11 112 113 170q91 52 198 21q17 -5 26 -20q9 -16 4 -33q-5 -18 -21 -26q-16 -9 -33 -4q-72 20 -131 -14q-63 -35 -69 -102
q-3 -31 11 -60q13 -29 38 -44q24 -15 58 -16q13 -1 26 0q11 1 22 4q27 5 61 19l31 14l29 14q16 8 33 2q17 -5 25 -21q8 -15 3 -32t-20 -26l-396 -226q-10 -6 -21 -6q-26 0 -38 22z" />
    <glyph glyph-name="uni06D3.fina" unicode="&#x6d3;" horiz-adv-x="1227" arabic-form="final" 
d="M352 -434q-226 26 -287 112q-19 28 -25 60q-8 43 9 90q59 166 269 257t533 91h376q33 0 56 -23t23 -56t-23 -56t-56 -23h-376q-262 0 -437 -66q-176 -65 -216 -177q-1 -4 -2 -7q2 -2 5 -4q4 -3 10 -5q14 -7 36 -14q63 -17 176 -27q177 -15 650 -15q32 0 56 -23
q23 -23 23 -56t-23 -56q-24 -23 -56 -23q-537 0 -721 21zM185 271q-9 16 -4 33q4 17 20 26l172 99q-25 7 -46 20q-46 28 -71 79q-25 52 -20 107q11 112 113 170q91 52 198 21q17 -5 26 -20q9 -16 4 -33q-5 -18 -21 -26q-16 -9 -33 -4q-72 20 -131 -14q-63 -35 -69 -102
q-3 -31 11 -60q13 -29 38 -44q24 -15 58 -16q13 -1 26 0q11 1 22 4q27 5 61 19l31 14l29 14q16 8 33 2q17 -5 25 -21q8 -15 3 -32t-20 -26l-396 -226q-10 -6 -21 -6q-26 0 -38 22z" />
    <glyph glyph-name="uni0626" unicode="&#x626;" horiz-adv-x="1776" arabic-form="isolated" 
d="M422 -608q-318 161 -333 524q-7 154 44 329q38 133 106 270q15 29 46 39q31 11 60 -4q30 -15 40 -46t-4 -60q-144 -288 -134 -521q11 -270 247 -390q202 -102 471 -43t404 236q27 35 40 62q5 10 8 18q3 6 3 11q-2 1 -5 3q-4 1 -9 3q-12 5 -29 9q-33 8 -117 19l-61 8
q-34 5 -61 10q-67 13 -113 34q-84 37 -120 103q-27 51 -26 115q3 133 67 261q64 129 177 230q113 102 247 154q135 51 260 41q33 -2 54 -27q22 -25 19 -58q-3 -32 -28 -54q-25 -21 -57 -18q-92 7 -197 -34q-105 -42 -192 -121q-186 -168 -192 -378q-1 -48 56 -72
q49 -20 187 -37q109 -14 155 -28l6 -1l6 -2q8 -3 15 -6q21 -7 38 -18q49 -28 68 -75q24 -59 -5 -133q-20 -51 -69 -115q-171 -225 -495 -296q-106 -23 -213 -23q-204 0 -364 81zM372 717q-9 16 -4 33q4 17 20 26l172 99q-25 7 -46 20q-46 28 -71 79q-25 52 -20 107
q11 112 113 170q91 52 198 21q17 -5 26 -20q9 -16 4 -33q-5 -18 -21 -26q-16 -9 -33 -4q-72 20 -131 -14q-63 -35 -69 -102q-3 -31 11 -60q13 -29 38 -44q24 -15 58 -16q13 -1 26 0q11 1 22 4q27 5 61 19l31 14l29 14q16 8 33 2q17 -5 25 -21q8 -15 3 -32t-20 -26l-396 -226
q-10 -6 -21 -6q-26 0 -38 22z" />
    <glyph glyph-name="uni0626.init" unicode="&#x626;" horiz-adv-x="838" arabic-form="initial" 
d="M-1 18q-33 0 -56 23t-23 56t23 56t56 23q264 0 350 19q121 27 169 105q37 62 11 205q-25 143 -102 303q-15 29 -4 60t40 45q30 15 61 4t45 -40q83 -173 114 -335q40 -209 -30 -324q-81 -132 -258 -175q-68 -17 -159 -22q-36 -2 -80 -3h-157zM174 1011q-9 16 -4 33
q4 17 20 26l172 99q-25 7 -46 20q-46 28 -71 79q-25 52 -20 107q11 112 113 170q91 52 198 21q17 -5 26 -20q9 -16 4 -33q-5 -18 -21 -26q-16 -9 -33 -4q-72 20 -131 -14q-63 -35 -69 -102q-3 -31 11 -60q13 -29 38 -44q24 -15 58 -16q13 -1 26 0q11 1 22 4q27 5 61 19
l31 14l29 14q16 8 33 2q17 -5 25 -21q8 -15 3 -32t-20 -26l-396 -226q-10 -6 -21 -6q-26 0 -38 22z" />
    <glyph glyph-name="uni0626.medi" unicode="&#x626;" horiz-adv-x="852" arabic-form="medial" 
d="M851 176q33 0 56 -23t23 -56t-23 -56t-56 -23q-83 0 -151 30q-87 39 -143 126q-11 -16 -23 -30q-68 -75 -190 -104q-90 -22 -344 -22q-33 0 -56 23t-23 56t23 56t56 23q350 0 416 70q68 54 45 247q-16 177 -18 197q-3 32 18 58q21 25 53 28q33 3 58 -18t28 -54
q2 -20 6 -65q18 -235 58 -330q55 -133 187 -133zM144 840q-9 16 -4 33q4 17 20 26l172 99q-25 7 -46 20q-46 28 -71 79q-25 52 -20 107q11 112 113 170q91 52 198 21q17 -5 26 -20q9 -16 4 -33q-5 -18 -21 -26q-16 -9 -33 -4q-72 20 -131 -14q-63 -35 -69 -102
q-3 -31 11 -60q13 -29 38 -44q24 -15 58 -16q13 -1 26 0q11 1 22 4q27 5 61 19l31 14l29 14q16 8 33 2q17 -5 25 -21q8 -15 3 -32t-20 -26l-396 -226q-10 -6 -21 -6q-26 0 -38 22z" />
    <glyph glyph-name="uni0626.fina" unicode="&#x626;" horiz-adv-x="1715" arabic-form="final" 
d="M510 -596q-172 55 -275 162q-146 152 -136 386q4 99 39 246q13 58 34 131l36 128q18 59 26 86q8 32 37 48t60 7q32 -9 48 -37q16 -29 7 -61q-8 -27 -26 -88l-8 -28l-9 -29l-17 -61q-19 -68 -32 -122q-34 -141 -37 -227q-7 -166 92 -270q79 -81 220 -124q117 -36 239 -36
q237 0 424 91q77 36 121 81q44 44 44 84q0 26 -52 67q-29 23 -78 52l-45 25l-46 25l-90 50q-49 28 -82 53q-36 26 -54 46q-26 29 -29 61q-2 12 0 24q2 10 6 18q18 44 69 55q19 4 42 3h19l16 -2q41 -3 159 -22l52 -8q31 -5 57 -9q65 -9 120 -16q145 -17 256 -17q33 0 56 -23
t23 -56t-23 -56t-56 -23q-99 0 -219 12q-89 9 -258 41q179 -84 235 -136q80 -76 80 -164q0 -178 -238 -300q-223 -114 -509 -114q-154 0 -298 47zM395 778q-9 16 -4 33q4 17 20 26l172 99q-25 7 -46 20q-46 28 -71 79q-25 52 -20 107q11 112 113 170q91 52 198 21
q17 -5 26 -20q9 -16 4 -33q-5 -18 -21 -26q-16 -9 -33 -4q-72 20 -131 -14q-63 -35 -69 -102q-3 -31 11 -60q13 -29 38 -44q24 -15 58 -16q13 -1 26 0q11 1 22 4q27 5 61 19l31 14l29 14q16 8 33 2q17 -5 25 -21q8 -15 3 -32t-20 -26l-396 -226q-10 -6 -21 -6q-26 0 -38 22z
" />
    <glyph glyph-name="uni06C2.fina" unicode="&#x6c2;" horiz-adv-x="1347" 
d="M254 10q-21 17 -28 44q-40 160 1 326q42 166 148 272q159 157 369 102q115 -30 200 -131q34 -40 67 -96q14 -22 29 -50l27 -50q73 -137 119 -184q65 -67 161 -67q32 0 56 -23q23 -23 23 -56t-23 -56q-24 -23 -56 -23q-163 0 -275 115q-41 42 -80 105q-15 24 -33 57
l-31 58q-61 114 -96 158q-57 71 -128 90q-123 32 -217 -61q-77 -76 -107 -203q-31 -126 -1 -245q8 -31 -9 -59q-16 -29 -48 -37q-10 -2 -20 -2q-26 0 -48 16zM230 833q-9 16 -4 33q4 17 20 26l172 99q-25 7 -46 20q-46 28 -71 79q-25 52 -20 107q11 112 113 170
q91 52 198 21q17 -5 26 -20q9 -16 4 -33q-5 -18 -21 -26q-16 -9 -33 -4q-72 20 -131 -14q-63 -35 -69 -102q-3 -31 11 -60q13 -29 38 -44q24 -15 58 -16q13 -1 26 0q11 1 22 4q27 5 61 19l31 14l29 14q16 8 33 2q17 -5 25 -21q8 -15 3 -32t-20 -26l-396 -226q-10 -6 -21 -6
q-26 0 -38 22z" />
    <glyph glyph-name="uni06C1" unicode="&#x6c1;" horiz-adv-x="983" arabic-form="isolated" 
d="M232 111q-113 98 -113 256q0 97 52 199q20 39 48 82q11 16 25 35l12 17l11 15q21 28 28 39q18 27 50 33q32 7 59 -11q28 -18 34 -51q6 -32 -12 -59q-9 -14 -32 -45l-9 -13l-10 -13l-20 -28q-22 -34 -38 -62q-40 -75 -40 -138q0 -91 65 -142q58 -46 144 -46q29 0 65 8
q45 10 82 28q99 52 99 152q0 129 -140 310q-127 165 -256 238q-28 17 -37 48q-9 32 8 60q16 29 47 37q32 9 60 -7q156 -89 303 -278q73 -94 116 -185q57 -120 57 -223q0 -175 -152 -273q-114 -73 -252 -73q-151 0 -254 90z" />
    <glyph glyph-name="uni06C3.fina" unicode="&#x6c3;" horiz-adv-x="1347" 
d="M254 10q-21 17 -28 44q-40 160 1 326q42 166 148 272q159 157 369 102q115 -30 200 -131q34 -40 67 -96q14 -22 29 -50l27 -50q73 -137 119 -184q65 -67 161 -67q32 0 56 -23q23 -23 23 -56t-23 -56q-24 -23 -56 -23q-163 0 -275 115q-41 42 -80 105q-15 24 -33 57
l-31 58q-61 114 -96 158q-57 71 -128 90q-123 32 -217 -61q-77 -76 -107 -203q-31 -126 -1 -245q8 -31 -9 -59q-16 -29 -48 -37q-10 -2 -20 -2q-26 0 -48 16zM248 934q-15 29 -5 61q10 31 39 46q184 95 402 83q70 -4 135 -18q21 -5 40 -10q6 -2 12 -3l3 -2h2q31 -11 45 -40
t4 -60q-11 -31 -40 -46q-28 -14 -59 -4h-1l-2 1q-4 1 -9 3q-14 3 -31 7q-52 11 -108 14q-177 9 -322 -66q-17 -9 -36 -9q-48 0 -69 43z" />
    <glyph glyph-name="uni06BE.init" unicode="&#x6be;" horiz-adv-x="1522" arabic-form="initial" 
d="M464 710q-86 -77 -102 -178q-15 -100 46 -186q47 -66 139 -117q177 54 228 173q62 146 13 256q-40 89 -131 108q-20 4 -40 4q-85 0 -153 -60zM1064 155q82 20 134 61q69 54 81 140q13 98 -60 198q-70 96 -216 188q-60 39 -132 75q37 -41 61 -94q78 -173 -12 -383
q-48 -114 -160 -187q165 -33 304 2zM649 18q-63 18 -119 43l-1 -1q-113 -26 -266 -36q-104 -6 -267 -6q-33 0 -56 23t-23 56t23 56t56 23q211 0 339 13q-31 31 -56 65q-97 137 -73 299q23 159 153 275q111 99 254 100q-57 21 -115 40q-44 14 -85 26q-32 8 -48 37t-7 60
q9 32 38 48q28 16 60 7q54 -16 113 -35q80 -26 157 -56q209 -82 362 -180q171 -108 259 -228q110 -151 88 -312q-18 -134 -115 -223q-85 -78 -218 -111q-86 -21 -187 -21q-135 0 -266 38z" />
    <glyph glyph-name="uni06BE.medi" unicode="&#x6be;" horiz-adv-x="1056" arabic-form="medial" 
d="M493 704q-116 -64 -175 -262q-40 -132 -35 -259q74 8 132 24q186 52 228 206q21 76 2 169q-20 93 -63 127l-5 4l-8 4q-9 4 -21 4q-24 0 -55 -17zM658 -588q-155 57 -304 236q-148 177 -203 370q-27 -1 -60 -1h-57q-34 1 -50 1q-33 0 -56 23t-23 56q0 32 23 56
q23 23 56 23h25l27 -1h89q-6 155 41 312q78 260 251 355q84 48 163 35q30 -5 58 -18q22 -11 42 -26q86 -68 118 -211q30 -134 -2 -251q-67 -240 -338 -316q-65 -18 -145 -28q75 -213 249 -369q-4 144 74 272q69 116 182 181q112 65 242 65q32 0 56 -23q23 -24 23 -56
q0 -33 -23 -56q-24 -23 -56 -23q-88 0 -164 -45q-77 -45 -125 -124q-47 -78 -51 -165q-4 -86 36 -161q25 -48 -11 -89q-24 -27 -59 -27q-15 0 -28 5z" />
    <glyph glyph-name="fathatan_01" unicode="&#xfe70;" arabic-form="isolated" 
d="M-254 1641q-6 17 1 33q8 16 25 22l433 154q17 6 33 -2q16 -7 22 -24t-2 -34q-7 -16 -24 -22l-433 -153q-7 -3 -14 -3q-31 0 -41 29zM-254 1897q-6 17 1 33q8 17 25 23l433 153q17 6 33 -1q16 -8 22 -25t-2 -33q-7 -17 -24 -23l-433 -153q-7 -3 -14 -3q-31 0 -41 29z" />
    <glyph glyph-name="dammatan_01" unicode="&#xfe72;" arabic-form="isolated" 
d="M92 1975q-18 -14 -27 -35q-12 -24 -7 -50q14 -78 132 -115q56 90 40 159q-9 38 -47 54q-16 8 -34 8q-31 0 -57 -21zM-128 1495q-20 0 -33 15q-17 19 -8 43l6 16l6 16l13 36q7 20 10 36q8 38 -7 62q-10 16 -22 23q-5 2 -9 3l-3 1h-2q-39 4 -86 -47q-12 -13 -30 -14t-31 12
q-14 12 -14 30q-1 18 11 31q76 83 158 75q26 -3 50 -16q30 -18 52 -52q39 -64 9 -162q111 38 186 102l-24 10q-112 56 -132 159q-8 47 9 93q18 45 57 77q84 66 180 24q78 -34 97 -114q21 -90 -37 -200l20 -3q18 -2 29 -17q11 -14 8 -32q-2 -18 -17 -29q-14 -11 -32 -8
q-34 5 -63 11q-71 -77 -186 -129q-43 -19 -89 -33q-34 -11 -67 -18z" />
    <glyph glyph-name="kasratan_01" unicode="&#xfe74;" arabic-form="isolated" 
d="M-254 -764q-6 17 1 33q8 16 25 22l433 154q17 6 33 -2q16 -7 22 -24t-2 -34q-7 -16 -24 -22l-433 -153q-7 -3 -14 -3q-31 0 -41 29zM-254 -508q-6 17 1 33q8 17 25 23l433 153q17 6 33 -1q16 -8 22 -25t-2 -33q-7 -17 -24 -23l-433 -153q-7 -3 -14 -3q-31 0 -41 29z" />
    <glyph glyph-name="fatha_01" unicode="&#xfe76;" arabic-form="isolated" 
d="M-246 1633q-6 17 1 33q8 17 25 23l433 153q17 6 33 -1q16 -8 22 -25t-2 -33q-7 -17 -24 -23l-433 -153q-7 -3 -14 -3q-31 0 -41 29z" />
    <glyph glyph-name="damma_01" unicode="&#xfe78;" arabic-form="isolated" 
d="M31 2020l-12 -5q-4 -2 -9 -4q-29 -17 -47 -45q-18 -27 -16 -52q3 -36 49 -67q36 -24 98 -44q45 82 34 150q-6 40 -35 62q-15 10 -34 10q-14 0 -28 -5zM-258 1560q-4 18 5 33q9 16 26 20q184 48 264 118q-167 63 -177 176q-4 50 25 100q30 49 82 79q98 56 176 -1
q59 -42 71 -119q14 -86 -34 -186l11 -3l10 -2q18 -4 27 -19q10 -15 6 -33t-19 -27q-15 -10 -33 -6l-11 3l-13 2q-15 4 -28 7q-95 -111 -335 -173q-5 -1 -11 -1q-33 0 -42 32z" />
    <glyph glyph-name="kasra_01" unicode="&#xfe7a;" arabic-form="isolated" 
d="M-254 -516q-6 17 1 33q8 17 25 23l433 153q17 6 33 -1q16 -8 22 -25t-2 -33q-7 -17 -24 -23l-433 -153q-7 -3 -14 -3q-31 0 -41 29z" />
    <glyph glyph-name="shadda_01" unicode="&#xfe7c;" arabic-form="isolated" 
d="M285 1907q16 -114 -60 -178q-44 -36 -102 -36q-29 0 -55 10q-36 14 -62 44q-22 -28 -49 -45q-40 -26 -88 -26q-36 0 -66 15q-72 36 -83 124q-9 64 25 134q8 17 25 23q17 5 33 -2q16 -8 22 -25t-2 -33q-9 -20 -14 -39q-6 -25 -3 -47q5 -42 36 -57q33 -17 69 6q34 22 49 69
q13 40 11 101q-1 18 11 31q13 13 31 14q18 0 31 -12t14 -30q2 -56 -7 -98q2 -5 3 -10q6 -41 45 -56q38 -14 70 12q39 33 30 98q-7 49 -53 122q-10 15 -5 32q4 18 19 28q15 9 33 5q17 -4 27 -19q55 -89 65 -155z" />
    <glyph glyph-name="sukun_01" unicode="&#xfe7e;" arabic-form="isolated" 
d="M18 1779q38 -1 62 23q19 19 29 50q8 25 8 51q0 51 -43 89q-39 35 -85 30q-26 -2 -46 -16q-15 -10 -27 -26q-31 -44 -18 -101q11 -46 43 -73t76 -27h1zM17 1692q-74 0 -130 46q-56 47 -74 122q-22 94 33 171q49 69 134 78q84 9 152 -52q72 -65 72 -154q0 -101 -63 -163
q-49 -48 -122 -48h-2z" />
    <glyph glyph-name="uni0651064C" unicode="&#xfc5e;" arabic-form="isolated" 
d="M285 1907q16 -114 -60 -178q-44 -36 -102 -36q-29 0 -55 10q-36 14 -62 44q-22 -28 -49 -45q-40 -26 -88 -26q-36 0 -66 15q-72 36 -83 124q-9 64 25 134q8 17 25 23q17 5 33 -2q16 -8 22 -25t-2 -33q-9 -20 -14 -39q-6 -25 -3 -47q5 -42 36 -57q33 -17 69 6q34 22 49 69
q13 40 11 101q-1 18 11 31q13 13 31 14q18 0 31 -12t14 -30q2 -56 -7 -98q2 -5 3 -10q6 -41 45 -56q38 -14 70 12q39 33 30 98q-7 49 -53 122q-10 15 -5 32q4 18 19 28q15 9 33 5q17 -4 27 -19q55 -89 65 -155zM92 2514q-18 -14 -27 -35q-12 -24 -7 -50q14 -78 132 -115
q56 90 40 159q-9 38 -47 54q-16 8 -34 8q-31 0 -57 -21zM-128 2034q-20 0 -33 15q-17 19 -8 43l6 16l6 16l13 36q7 20 10 36q8 38 -7 62q-10 16 -22 23q-5 2 -9 3l-3 1h-2q-39 4 -86 -47q-12 -13 -30 -14t-31 12q-14 12 -14 30q-1 18 11 31q76 83 158 75q26 -3 50 -16
q30 -18 52 -52q39 -64 9 -162q111 38 186 102l-24 10q-112 56 -132 159q-8 47 9 93q18 45 57 77q84 66 180 24q78 -34 97 -114q21 -90 -37 -200l20 -3q18 -2 29 -17q11 -14 8 -32q-2 -18 -17 -29q-14 -11 -32 -8q-34 5 -63 11q-71 -77 -186 -129q-43 -19 -89 -33
q-34 -11 -67 -18z" />
    <glyph glyph-name="uni0651064D" unicode="&#xfc5f;" arabic-form="isolated" 
d="M285 1907q16 -114 -60 -178q-44 -36 -102 -36q-29 0 -55 10q-36 14 -62 44q-22 -28 -49 -45q-40 -26 -88 -26q-36 0 -66 15q-72 36 -83 124q-9 64 25 134q8 17 25 23q17 5 33 -2q16 -8 22 -25t-2 -33q-9 -20 -14 -39q-6 -25 -3 -47q5 -42 36 -57q33 -17 69 6q34 22 49 69
q13 40 11 101q-1 18 11 31q13 13 31 14q18 0 31 -12t14 -30q2 -56 -7 -98q2 -5 3 -10q6 -41 45 -56q38 -14 70 12q39 33 30 98q-7 49 -53 122q-10 15 -5 32q4 18 19 28q15 9 33 5q17 -4 27 -19q55 -89 65 -155zM-245 1173q-6 17 1 33q8 16 25 22l433 154q17 6 33 -2
q16 -7 22 -24t-2 -34q-7 -16 -24 -22l-433 -153q-7 -3 -14 -3q-31 0 -41 29zM-245 1429q-6 17 1 33q8 17 25 23l433 153q17 6 33 -1q16 -8 22 -25t-2 -33q-7 -17 -24 -23l-433 -153q-7 -3 -14 -3q-31 0 -41 29z" />
    <glyph glyph-name="uni0651064E" unicode="&#xfc60;" arabic-form="isolated" 
d="M285 1907q16 -114 -60 -178q-44 -36 -102 -36q-29 0 -55 10q-36 14 -62 44q-22 -28 -49 -45q-40 -26 -88 -26q-36 0 -66 15q-72 36 -83 124q-9 64 25 134q8 17 25 23q17 5 33 -2q16 -8 22 -25t-2 -33q-9 -20 -14 -39q-6 -25 -3 -47q5 -42 36 -57q33 -17 69 6q34 22 49 69
q13 40 11 101q-1 18 11 31q13 13 31 14q18 0 31 -12t14 -30q2 -56 -7 -98q2 -5 3 -10q6 -41 45 -56q38 -14 70 12q39 33 30 98q-7 49 -53 122q-10 15 -5 32q4 18 19 28q15 9 33 5q17 -4 27 -19q55 -89 65 -155zM-242 2145q-6 17 1 33q8 17 25 23l433 153q17 6 33 -1
q16 -8 22 -25t-2 -33q-7 -17 -24 -23l-433 -153q-7 -3 -14 -3q-31 0 -41 29z" />
    <glyph glyph-name="uni0651064F" unicode="&#xfc61;" arabic-form="isolated" 
d="M285 1907q16 -114 -60 -178q-44 -36 -102 -36q-29 0 -55 10q-36 14 -62 44q-22 -28 -49 -45q-40 -26 -88 -26q-36 0 -66 15q-72 36 -83 124q-9 64 25 134q8 17 25 23q17 5 33 -2q16 -8 22 -25t-2 -33q-9 -20 -14 -39q-6 -25 -3 -47q5 -42 36 -57q33 -17 69 6q34 22 49 69
q13 40 11 101q-1 18 11 31q13 13 31 14q18 0 31 -12t14 -30q2 -56 -7 -98q2 -5 3 -10q6 -41 45 -56q38 -14 70 12q39 33 30 98q-7 49 -53 122q-10 15 -5 32q4 18 19 28q15 9 33 5q17 -4 27 -19q55 -89 65 -155zM31 2567l-12 -5q-4 -2 -9 -4q-29 -17 -47 -45q-18 -27 -16 -52
q3 -36 49 -67q36 -24 98 -44q45 82 34 150q-6 40 -35 62q-15 10 -34 10q-14 0 -28 -5zM-258 2107q-4 18 5 33q9 16 26 20q184 48 264 118q-167 63 -177 176q-4 50 25 100q30 49 82 79q98 56 176 -1q59 -42 71 -119q14 -86 -34 -186l11 -3l10 -2q18 -4 27 -19q10 -15 6 -33
t-19 -27q-15 -10 -33 -6l-11 3l-13 2q-15 4 -28 7q-95 -111 -335 -173q-5 -1 -11 -1q-33 0 -42 32z" />
    <glyph glyph-name="uni06510650" unicode="&#xfc62;" arabic-form="isolated" 
d="M285 1907q16 -114 -60 -178q-44 -36 -102 -36q-29 0 -55 10q-36 14 -62 44q-22 -28 -49 -45q-40 -26 -88 -26q-36 0 -66 15q-72 36 -83 124q-9 64 25 134q8 17 25 23q17 5 33 -2q16 -8 22 -25t-2 -33q-9 -20 -14 -39q-6 -25 -3 -47q5 -42 36 -57q33 -17 69 6q34 22 49 69
q13 40 11 101q-1 18 11 31q13 13 31 14q18 0 31 -12t14 -30q2 -56 -7 -98q2 -5 3 -10q6 -41 45 -56q38 -14 70 12q39 33 30 98q-7 49 -53 122q-10 15 -5 32q4 18 19 28q15 9 33 5q17 -4 27 -19q55 -89 65 -155zM-255 1387q-6 17 1 33q8 17 25 23l433 153q17 6 33 -1
q16 -8 22 -25t-2 -33q-7 -17 -24 -23l-433 -153q-7 -3 -14 -3q-31 0 -41 29z" />
    <glyph glyph-name="uniFC63" unicode="&#xfc63;" arabic-form="isolated" 
d="M285 1907q16 -114 -60 -178q-44 -36 -102 -36q-29 0 -55 10q-36 14 -62 44q-22 -28 -49 -45q-40 -26 -88 -26q-36 0 -66 15q-72 36 -83 124q-9 64 25 134q8 17 25 23q17 5 33 -2q16 -8 22 -25t-2 -33q-9 -20 -14 -39q-6 -25 -3 -47q5 -42 36 -57q33 -17 69 6q34 22 49 69
q13 40 11 101q-1 18 11 31q13 13 31 14q18 0 31 -12t14 -30q2 -56 -7 -98q2 -5 3 -10q6 -41 45 -56q38 -14 70 12q39 33 30 98q-7 49 -53 122q-10 15 -5 32q4 18 19 28q15 9 33 5q17 -4 27 -19q55 -89 65 -155zM-21 2143q-18 4 -28 19q-9 15 -6 33q43 192 6 385q-4 18 6 33
t28 18q18 4 33 -6t18 -28q41 -211 -6 -421q-7 -34 -42 -34z" />
    <glyph glyph-name=".notdef" horiz-adv-x="1229" 
d="M102 -362v1806h1024v-1806h-1024zM217 -248h795v1577h-795v-1577z" />
    <glyph glyph-name="NULL" unicode="&#xfeff;" 
 />
    <glyph glyph-name="NULL" 
 />
    <glyph glyph-name="nonmarkingreturn" horiz-adv-x="602" 
 />
    <glyph glyph-name="space" unicode=" " horiz-adv-x="696" 
 />
    <glyph glyph-name="space" unicode="&#xa0;" horiz-adv-x="696" 
 />
    <glyph glyph-name="uni0640" unicode="&#x640;" horiz-adv-x="907" 
d="M927 177v-159h-947v159h947z" />
    <glyph glyph-name="uni066E" unicode="&#x66e;" horiz-adv-x="2013" 
d="M514 52q-220 53 -325 184q-114 143 -94 307q18 147 143 289q22 24 55 26q32 2 57 -20q24 -21 26 -54t-19 -57q-188 -212 -45 -392q83 -103 296 -141q74 -13 164 -17q32 -2 67 -3h52q332 0 551 61q218 60 272 168q66 131 -109 369q-19 26 -15 59q5 32 32 51q26 20 58 15
q33 -5 52 -31q234 -316 123 -535q-89 -176 -394 -255q-231 -60 -570 -60q-225 0 -377 36z" />
    <glyph glyph-name="feh_dotless.isol" horiz-adv-x="1982" 
d="M1442 950q-49 -16 -88 -75q-40 -59 -53 -137q-18 -102 42 -151q57 -46 165 -49q100 -4 189 29q-1 94 -34 184q-33 94 -90 150q-53 53 -103 53q-14 0 -28 -4zM959 26q-198 0 -379 33q-281 52 -388 187q-114 143 -94 307q18 147 143 289q22 24 55 26q32 2 57 -20
q24 -21 26 -54t-19 -57q-188 -212 -45 -392q60 -76 234 -118q184 -43 410 -43h73q48 1 90 3q112 5 201 20q248 43 327 164q7 10 13 22q-116 -24 -224 -8q-120 17 -196 80q-55 45 -82 109q-35 83 -16 191q21 123 89 215q68 91 160 120q26 9 53 11q35 3 69 -3q90 -16 169 -95
q131 -131 163 -353q31 -227 -66 -376q-110 -169 -404 -227q-104 -20 -236 -27q-48 -3 -102 -4h-81z" />
    <glyph glyph-name="uni06A1.fina" horiz-adv-x="2106" 
d="M1479 674q-62 -84 -62 -186q0 -161 175 -237q167 83 184 245q14 129 -63 215q-43 47 -95 47q-76 0 -139 -84zM926 -2q-16 0 -33 1q-43 1 -86 4q-82 9 -190 29q-306 60 -422 206q-114 143 -94 307q18 147 143 288q22 25 55 27q32 2 57 -20q24 -22 26 -54q2 -33 -19 -57
q-188 -213 -45 -392q69 -87 269 -137q183 -43 358 -44h5q277 0 444 32q-135 116 -135 300q0 159 98 287q109 141 261 141q123 0 213 -100q57 -64 85 -154q27 -91 17 -183q-18 -169 -142 -282q138 -21 318 -21q33 0 56 -23t23 -56t-23 -56t-56 -23q-132 0 -239 10
q-151 14 -276 53q-41 -16 -87 -28q-128 -36 -298 -48q-64 -4 -138 -6q-28 0 -61 -1h-84z" />
    <glyph glyph-name="uni066F" unicode="&#x66f;" horiz-adv-x="1581" 
d="M276 -436q-167 168 -167 409q0 287 168 495q20 25 53 29q32 3 58 -17q25 -21 29 -53q3 -33 -17 -59q-133 -164 -133 -395q0 -176 121 -297q146 -146 397 -146q245 0 392 149q171 174 167 467v2q0 163 -81 329q-94 192 -222 192q-72 0 -127 -56q-83 -85 -80 -234
q2 -85 69 -142q109 -92 300 -63q32 5 59 -14q26 -20 31 -52t-15 -59q-19 -26 -52 -31q-124 -19 -235 7q-112 25 -190 91q-122 103 -125 260q-5 215 125 348q102 103 240 103q121 0 221 -85q80 -69 138 -186q52 -103 79 -225q23 -101 23 -183q2 -171 -53 -323
q-56 -151 -159 -257q-194 -196 -505 -196q-317 0 -509 192z" />
    <glyph glyph-name="onedot.above" 
d="M129 1353q0 -50 -38 -90q-39 -39 -85 -39q-48 0 -102 38q-38 41 -38 91q0 44 41 86q42 43 89 43t89 -39q44 -41 44 -90z" />
    <glyph glyph-name="twodots.above" 
d="M-345 1280q-15 29 -5 61q10 31 39 46q184 95 402 83q70 -4 135 -18q21 -5 40 -10q6 -2 12 -3l3 -2h2q31 -11 45 -40t4 -60q-11 -31 -40 -46q-28 -14 -59 -4h-1l-2 1q-4 1 -9 3q-14 3 -31 7q-52 11 -108 14q-177 9 -322 -66q-17 -9 -36 -9q-48 0 -69 43z" />
    <glyph glyph-name="threedots.above" 
d="M-366 1234q-11 29 -1 59t36 43q292 146 608 87q28 -5 44 -31q17 -26 12 -57q-4 -32 -28 -51q-23 -18 -51 -13q-275 51 -529 -76q-14 -7 -28 -7q-45 0 -63 46zM-65 1589q-51 -9 -88 27q-25 26 -28 63q-3 36 18 66q4 7 10 12q27 24 63 30t68 -9q33 -16 52 -47t17 -67
q-2 -42 -38 -64q-23 -14 -51 -14q-11 0 -23 3z" />
    <glyph glyph-name="threedots.below" 
d="M348 -257q12 -29 1 -59q-10 -30 -36 -43q-292 -147 -607 -88q-29 6 -45 32q-17 26 -12 57q5 32 28 50q23 19 51 14q275 -52 529 76q14 7 28 7q45 0 63 -46zM47 -612q51 9 88 -28q26 -25 29 -62t-18 -66q-5 -7 -11 -12q-26 -25 -63 -30q-36 -6 -68 9q-33 15 -52 47
q-19 31 -17 67q2 42 38 64q23 14 51 14q11 0 23 -3z" />
    <glyph glyph-name="uni0660" unicode="&#x660;" horiz-adv-x="990" 
d="M395 697q-55 -39 -73 -95q-17 -55 5 -118q22 -62 73 -100q46 -33 106 -30q61 2 115 40q50 35 71 89q20 55 4 110q-17 57 -71 99q-55 42 -114 45q-62 -1 -116 -40zM323 279q-85 63 -120 165q-35 103 -5 198q32 97 122 161q88 63 191 64h3q102 -3 190 -71t117 -166
q28 -96 -6 -190q-34 -93 -120 -153q-90 -64 -197 -64q-99 0 -175 56z" />
    <glyph glyph-name="uni0661" unicode="&#x661;" horiz-adv-x="662" 
d="M444 -42q-33 1 -56 25q-22 23 -21 56q8 309 -38 648q-56 420 -170 618q-17 28 -8 60q8 32 37 48q28 16 60 8q31 -9 48 -37q126 -220 188 -659q50 -357 41 -690q-1 -32 -24 -55q-23 -22 -55 -22h-2z" />
    <glyph glyph-name="uni0662" unicode="&#x662;" horiz-adv-x="1137" 
d="M402 -49q-32 2 -54 26t-21 57q32 694 -215 1269q-13 30 -1 60q12 31 42 44t60 1t44 -42l16 -38l16 -39q79 -191 145 -251q63 -57 133 -72q70 -14 130 16q84 43 116 157q15 53 16 121q1 49 -6 113q-3 33 18 58q20 26 53 29t58 -17q25 -21 29 -54q8 -77 6 -137
q-2 -85 -22 -156q-50 -181 -196 -255q-112 -56 -236 -29q-58 12 -114 43q16 -72 28 -147q54 -330 38 -682q-1 -31 -24 -53t-55 -22h-4z" />
    <glyph glyph-name="uni0663" unicode="&#x663;" horiz-adv-x="1439" 
d="M337 -13q-23 24 -23 56l1 82v82q0 92 -2 165q-6 185 -25 329q-24 182 -132 448l-24 58l-23 58l-19 47l-2 5q-12 31 1 61q12 30 43 42q30 13 60 0t43 -43l2 -6q9 -22 19 -48q7 -16 18 -44q15 -35 22 -53q60 -140 115 -197q66 -70 156 -60q49 5 80 44q40 51 55 150
q11 74 7 156q-2 16 -3 31v8l-1 4q-1 32 20 56t53 26q32 3 57 -17q24 -20 28 -52v-4q1 -3 1 -7q1 -13 2 -28l4 -36l8 -46q10 -57 26 -105q58 -180 162 -180h1q3 0 9 2t13 5q19 9 34 27q51 59 32 177q-15 97 -45 189q-10 31 5 61q14 29 46 39q31 10 60 -5q29 -14 39 -46
q34 -104 51 -213q17 -107 -8 -192q-18 -64 -59 -113q-75 -88 -176 -89q-126 -1 -215 101q-24 27 -45 62q-16 -32 -37 -59q-72 -90 -186 -103q-85 -10 -158 18q10 -51 18 -108q20 -152 26 -342q2 -75 2 -169v-85v-83q-1 -33 -24 -56t-55 -23q-34 0 -57 23z" />
    <glyph glyph-name="uni0664" unicode="&#x664;" horiz-adv-x="1104" 
d="M430 19q-146 62 -190 216q-40 140 41 283q55 97 158 179q-19 3 -36 8q-115 28 -185 87q-93 78 -102 198q-14 185 153 325q127 108 315 156q32 8 60 -9q29 -17 37 -48q8 -32 -9 -60t-48 -36q-154 -40 -253 -124q-105 -88 -97 -192q8 -109 181 -147q63 -14 145 -18
q60 -3 125 0q30 2 53 -17q24 -20 28 -50q5 -30 -12 -55q-16 -25 -46 -33q-91 -24 -181 -87q-100 -70 -149 -155q-48 -85 -26 -162q23 -81 100 -114q79 -34 203 -19q108 14 180 51q29 16 60 6t47 -39q15 -29 5 -60t-39 -47q-140 -73 -323 -73q-111 0 -195 36z" />
    <glyph glyph-name="uni0665" unicode="&#x665;" horiz-adv-x="1240" 
d="M304 151q-152 145 -152 385q0 161 83 330q57 115 179 276q19 26 52 31q32 4 58 -16q27 -19 31 -52q5 -32 -15 -58q-107 -141 -157 -239q-73 -144 -73 -272q0 -188 121 -285q47 -38 107 -57q51 -16 99 -16q141 0 235 96q86 88 86 203q0 129 -64 279q-48 115 -130 234
q-84 122 -188 229q-87 90 -165 147q-27 19 -32 52q-5 32 14 59q20 26 52 31t59 -14q87 -64 184 -163q115 -118 206 -251q94 -137 149 -271q73 -176 73 -332q0 -176 -128 -311q-140 -146 -351 -146q-195 0 -333 131z" />
    <glyph glyph-name="uni0666" unicode="&#x666;" horiz-adv-x="1166" 
d="M888 19q-56 131 -93 322q-28 146 -43 316q-26 304 -7 597q-132 -33 -263 -33q-221 0 -378 97q-28 17 -36 49q-7 32 10 60t49 35q32 8 60 -9q125 -77 309 -74q156 2 311 58q41 15 76 -12q34 -27 30 -70q-33 -316 -5 -667q31 -389 125 -607q13 -30 1 -60q-12 -31 -42 -44
q-15 -6 -31 -6q-52 0 -73 48z" />
    <glyph glyph-name="uni0667" unicode="&#x667;" horiz-adv-x="1291" 
d="M666 -53q-30 0 -53 20q-22 21 -25 51q-68 661 -459 1361q-16 28 -7 60q9 31 38 47q28 16 60 7q31 -9 47 -37q276 -493 402 -997q56 202 154 456q38 98 87 215q19 46 42 102l21 49l20 48q36 83 52 122q13 30 43 43q30 12 60 0q31 -13 43 -43q13 -30 0 -61
q-16 -39 -52 -123l-14 -32l-14 -34q-16 -38 -29 -69q-34 -81 -61 -149q-71 -175 -122 -321q-134 -386 -154 -642q-2 -31 -25 -52q-22 -21 -53 -21h-1z" />
    <glyph glyph-name="uni0668" unicode="&#x668;" horiz-adv-x="1351" 
d="M189 -43q-30 14 -40 45q-10 32 5 61q153 303 273 645q145 412 182 723q4 30 26 50q23 20 53 20q31 0 53 -21q22 -20 25 -50q36 -351 187 -749q115 -303 288 -612q16 -28 7 -60q-9 -31 -38 -47q-28 -16 -60 -8q-31 9 -47 38q-128 228 -226 456q-123 286 -193 555
q-137 -512 -389 -1012q-22 -43 -71 -43q-19 0 -35 9z" />
    <glyph glyph-name="uni0669" unicode="&#x669;" horiz-adv-x="1098" 
d="M370 1372q-58 -42 -90 -125q-33 -83 -20 -158q15 -90 78 -129q50 -30 127 -32q68 -1 130 19q28 9 55 -3l1 73q0 35 -1 63q-3 71 -13 122q-25 130 -110 176q-40 21 -77 21q-41 0 -80 -27zM778 24q-22 17 -29 44q-85 361 -97 731l-9 -3q-89 -29 -186 -26q-117 4 -201 55
q-125 76 -152 238q-20 119 30 245q50 125 144 192q153 110 325 17q139 -76 182 -254q17 -69 22 -159q2 -35 2 -78l-1 -75v-86q8 -389 95 -761q8 -32 -9 -60q-18 -27 -50 -35q-9 -2 -18 -2q-27 0 -48 17z" />
    <glyph glyph-name="uni06F4" unicode="&#x6f4;" horiz-adv-x="1258" 
d="M969 1228l-1 1v1zM404 -53q-33 1 -55 24q-23 24 -22 57q13 608 -166 1198q-20 54 -36 114q-8 31 7 59q16 28 46 37q31 10 59 -5q29 -15 39 -45q19 -55 36 -111q72 -192 201 -281q-35 83 -26 185q10 120 109 209q101 90 232 90q185 0 288 -145q19 -27 14 -59
q-6 -33 -33 -52q-26 -19 -59 -13q-32 5 -51 32l-3 5l-4 5q-5 7 -10 12q-14 16 -30 27q-45 30 -112 30q-71 0 -126 -50q-53 -47 -57 -104q-10 -118 67 -183q91 -77 244 -65q40 5 82 13q32 7 59 -11q27 -17 34 -48q7 -32 -10 -59q-16 -27 -47 -36q-50 -12 -101 -17
q-303 -40 -506 76q-29 16 -55 36q82 -426 73 -848q-1 -32 -24 -54q-23 -23 -55 -23h-2z" />
    <glyph glyph-name="uni06F5" unicode="&#x6f5;" horiz-adv-x="1379" 
d="M1055 980q200 -297 200 -578q0 -143 -71 -255q-94 -150 -264 -150q-134 0 -224 101l-4 5q-26 -30 -58 -51q-73 -49 -165 -49q-143 0 -239 101q-109 114 -109 318q0 322 337 749q20 26 53 29q32 4 58 -16t30 -53q3 -32 -17 -58q-303 -384 -303 -651q0 -156 78 -222
q28 -23 64 -32q13 -4 27 -6q11 -1 21 -1q41 0 73 20q42 26 64 85l4 7q-15 72 -6 146q3 33 29 53t58 16q33 -4 53 -29q20 -26 17 -59q-15 -121 53 -197q43 -48 106 -48q95 0 143 98q17 36 26 81q7 37 7 68q0 232 -172 490q-173 257 -470 468q-26 19 -32 51q-5 32 14 59t51 32
q32 6 59 -13q320 -227 509 -509z" />
    <glyph glyph-name="uni06F6" unicode="&#x6f6;" horiz-adv-x="1176" 
d="M183 -46q-31 10 -46 39t-5 60q84 265 283 516q79 99 166 179q-126 9 -218 69q-147 95 -147 263q0 162 113 283q125 132 316 132q72 0 157 -28q27 -8 54 -20q9 -3 17 -7l6 -3l2 -1h1q29 -15 40 -46q10 -31 -4 -60q-15 -30 -46 -40q-31 -11 -60 4h-1l-3 2q-5 2 -11 5
q-19 8 -39 14q-64 22 -113 22q-121 0 -199 -81q-72 -75 -72 -176q0 -82 75 -131q74 -48 192 -44q117 3 255 57q30 13 60 25q30 11 59 -2q30 -12 42 -42t0 -60q-11 -29 -41 -42q-30 -14 -59 -26q-244 -112 -443 -376q-162 -216 -231 -434q-18 -55 -76 -55q-12 0 -24 4z" />
    <glyph glyph-name="uni066A" unicode="&#x66a;" horiz-adv-x="1217" 
d="M941 1533q14 -30 2 -60l-557 -1462q-20 -51 -74 -51q-15 0 -28 5q-31 12 -44 42q-14 30 -2 60l557 1462q12 31 42 44t60 2q31 -12 44 -42zM1052 185q0 -56 -40 -96t-97 -40q-56 0 -96 40t-40 96q0 57 40 97t96 40q57 0 97 -40t40 -97zM418 1305q0 -56 -40 -96t-97 -40
q-56 0 -96 40t-40 96q0 57 40 97t96 40q57 0 97 -40t40 -97z" />
    <glyph glyph-name="uni061F" unicode="&#x61f;" horiz-adv-x="1024" 
d="M498 433q-24 23 -24 56q0 173 -20 232q-27 75 -127 139q-110 70 -165 140q-76 96 -76 220v16l2 22q3 31 11 61q20 86 70 153q48 66 120 105q94 52 219 52q170 0 290 -105q132 -115 132 -307q0 -33 -23 -56t-56 -23t-56 23t-23 56q0 123 -83 193q-73 61 -181 61
q-144 0 -212 -93q-27 -36 -40 -82q-12 -40 -12 -76q0 -65 39 -117q38 -52 128 -110q150 -95 194 -226q28 -82 28 -278q0 -33 -24 -56q-23 -23 -55 -23q-33 0 -56 23zM678 148q0 -54 -38 -92t-92 -38t-92 38t-38 92t38 92t92 38t92 -38t38 -92z" />
    <glyph glyph-name="uni060C" unicode="&#x60c;" horiz-adv-x="630" 
d="M278 57q-83 70 -87 174q-4 108 80 236q30 45 68 89q15 17 30 33l23 23q18 17 42 17q25 -1 42 -18q17 -18 16 -42q0 -25 -18 -42q-69 -67 -115 -143q-52 -87 -49 -149q15 24 41 38q66 35 135 -9q63 -41 59 -114q-6 -92 -82 -125q-28 -12 -61 -12q-71 0 -124 44z" />
    <glyph glyph-name="uni061B" unicode="&#x61b;" horiz-adv-x="512" 
d="M384 133q0 -55 -39 -94t-94 -39t-94 39t-39 94t39 94t94 39t94 -39t39 -94zM154 473q-83 70 -87 174q-4 108 80 236q29 45 68 90q14 16 30 32q11 12 23 23q17 17 42 17q24 0 41 -18t17 -42q0 -25 -18 -42q-69 -67 -115 -143q-52 -86 -50 -149q16 24 42 38q66 35 134 -9
q63 -41 59 -114q-5 -92 -81 -125q-28 -12 -62 -12q-71 0 -123 44z" />
    <glyph glyph-name="uni066B" unicode="&#x66b;" horiz-adv-x="689" 
d="M58 -249q-23 10 -31 33q-9 23 2 46l456 997q10 23 33 31q23 9 46 -1q22 -11 31 -34q8 -23 -2 -45l-457 -998q-15 -34 -54 -34q-12 0 -24 5z" />
    <glyph glyph-name="uni066C" unicode="&#x66c;" horiz-adv-x="511" 
d="M117 -304q-16 18 -14 43q2 24 20 40q74 63 124 136q57 83 58 146q-16 -23 -43 -35q-68 -31 -134 17q-60 44 -52 117q11 91 89 120q46 17 100 2q49 -14 83 -45q79 -75 76 -179q-3 -109 -94 -231q-32 -43 -74 -85q-15 -16 -31 -31q-13 -12 -25 -22q-16 -14 -38 -14
q-27 0 -45 21z" />
    <glyph glyph-name="uni066D" unicode="&#x66d;" horiz-adv-x="1126" 
d="M1059 1182q5 -32 -14 -58q-19 -27 -51 -32l-302 -48l174 -286q17 -28 9 -60t-36 -49q-19 -11 -41 -11q-45 0 -68 38l-171 281l-168 -281q-23 -38 -68 -38q-22 0 -41 11q-28 17 -36 48q-8 32 9 60l173 289l-298 46q-32 5 -52 31q-19 26 -14 59q5 32 31 52q27 19 59 14
l330 -50v315q0 33 23 56q24 24 56 24q33 0 56 -24q23 -23 23 -56v-317l327 52q32 5 59 -14q26 -19 31 -52z" />
    <glyph glyph-name="uni064B" unicode="&#x64b;" 
d="M-254 1641q-6 17 1 33q8 16 25 22l433 154q17 6 33 -2q16 -7 22 -24t-2 -34q-7 -16 -24 -22l-433 -153q-7 -3 -14 -3q-31 0 -41 29zM-254 1897q-6 17 1 33q8 17 25 23l433 153q17 6 33 -1q16 -8 22 -25t-2 -33q-7 -17 -24 -23l-433 -153q-7 -3 -14 -3q-31 0 -41 29z" />
    <glyph glyph-name="uni064D" unicode="&#x64d;" 
d="M-254 -764q-6 17 1 33q8 16 25 22l433 154q17 6 33 -2q16 -7 22 -24t-2 -34q-7 -16 -24 -22l-433 -153q-7 -3 -14 -3q-31 0 -41 29zM-254 -508q-6 17 1 33q8 17 25 23l433 153q17 6 33 -1q16 -8 22 -25t-2 -33q-7 -17 -24 -23l-433 -153q-7 -3 -14 -3q-31 0 -41 29z" />
    <glyph glyph-name="uni064E" unicode="&#x64e;" 
d="M-246 1633q-6 17 1 33q8 17 25 23l433 153q17 6 33 -1q16 -8 22 -25t-2 -33q-7 -17 -24 -23l-433 -153q-7 -3 -14 -3q-31 0 -41 29z" />
    <glyph glyph-name="uni064F" unicode="&#x64f;" 
d="M31 2020l-12 -5q-4 -2 -9 -4q-29 -17 -47 -45q-18 -27 -16 -52q3 -36 49 -67q36 -24 98 -44q45 82 34 150q-6 40 -35 62q-15 10 -34 10q-14 0 -28 -5zM-258 1560q-4 18 5 33q9 16 26 20q184 48 264 118q-167 63 -177 176q-4 50 25 100q30 49 82 79q98 56 176 -1
q59 -42 71 -119q14 -86 -34 -186l11 -3l10 -2q18 -4 27 -19q10 -15 6 -33t-19 -27q-15 -10 -33 -6l-11 3l-13 2q-15 4 -28 7q-95 -111 -335 -173q-5 -1 -11 -1q-33 0 -42 32z" />
    <glyph glyph-name="uni064C" unicode="&#x64c;" 
d="M92 1975q-18 -14 -27 -35q-12 -24 -7 -50q14 -78 132 -115q56 90 40 159q-9 38 -47 54q-16 8 -34 8q-31 0 -57 -21zM-128 1495q-20 0 -33 15q-17 19 -8 43l6 16l6 16l13 36q7 20 10 36q8 38 -7 62q-10 16 -22 23q-5 2 -9 3l-3 1h-2q-39 4 -86 -47q-12 -13 -30 -14t-31 12
q-14 12 -14 30q-1 18 11 31q76 83 158 75q26 -3 50 -16q30 -18 52 -52q39 -64 9 -162q111 38 186 102l-24 10q-112 56 -132 159q-8 47 9 93q18 45 57 77q84 66 180 24q78 -34 97 -114q21 -90 -37 -200l20 -3q18 -2 29 -17q11 -14 8 -32q-2 -18 -17 -29q-14 -11 -32 -8
q-34 5 -63 11q-71 -77 -186 -129q-43 -19 -89 -33q-34 -11 -67 -18z" />
    <glyph glyph-name="uni0650" unicode="&#x650;" 
d="M-254 -516q-6 17 1 33q8 17 25 23l433 153q17 6 33 -1q16 -8 22 -25t-2 -33q-7 -17 -24 -23l-433 -153q-7 -3 -14 -3q-31 0 -41 29z" />
    <glyph glyph-name="uni0651" unicode="&#x651;" 
d="M285 1907q16 -114 -60 -178q-44 -36 -102 -36q-29 0 -55 10q-36 14 -62 44q-22 -28 -49 -45q-40 -26 -88 -26q-36 0 -66 15q-72 36 -83 124q-9 64 25 134q8 17 25 23q17 5 33 -2q16 -8 22 -25t-2 -33q-9 -20 -14 -39q-6 -25 -3 -47q5 -42 36 -57q33 -17 69 6q34 22 49 69
q13 40 11 101q-1 18 11 31q13 13 31 14q18 0 31 -12t14 -30q2 -56 -7 -98q2 -5 3 -10q6 -41 45 -56q38 -14 70 12q39 33 30 98q-7 49 -53 122q-10 15 -5 32q4 18 19 28q15 9 33 5q17 -4 27 -19q55 -89 65 -155z" />
    <glyph glyph-name="uni0652" unicode="&#x652;" 
d="M18 1779q38 -1 62 23q19 19 29 50q8 25 8 51q0 51 -43 89q-39 35 -85 30q-26 -2 -46 -16q-15 -10 -27 -26q-31 -44 -18 -101q11 -46 43 -73t76 -27h1zM17 1692q-74 0 -130 46q-56 47 -74 122q-22 94 33 171q49 69 134 78q84 9 152 -52q72 -65 72 -154q0 -101 -63 -163
q-49 -48 -122 -48h-2z" />
    <glyph glyph-name="uni0653" unicode="&#x653;" 
d="M-346 1544q-27 18 -33 50q-7 33 11 60l10 14l10 15q12 18 24 32q29 36 61 60q85 64 198 44q34 -6 79 -19l41 -12l41 -14l49 -16q27 -8 48 -14q52 -14 85 -16q115 -6 194 104q19 27 52 32q32 5 59 -14q26 -19 31 -52q6 -32 -14 -58q-130 -181 -330 -170q-47 3 -110 19
q-25 7 -57 17l-57 18q-99 33 -138 39q-43 8 -72 -11q-28 -19 -72 -86q-23 -35 -66 -35q-24 0 -44 13z" />
    <glyph glyph-name="uni0654" unicode="&#x654;" 
d="M-249 1479q-9 16 -4 33q4 17 20 26l172 99q-25 7 -46 20q-46 28 -71 79q-25 52 -20 107q11 112 113 170q91 52 198 21q17 -5 26 -20q9 -16 4 -33q-5 -18 -21 -26q-16 -9 -33 -4q-72 20 -131 -14q-63 -35 -69 -102q-3 -31 11 -60q13 -29 38 -44q24 -15 58 -16q13 -1 26 0
q11 1 22 4q27 5 61 19l31 14l29 14q16 8 33 2q17 -5 25 -21q8 -15 3 -32t-20 -26l-396 -226q-10 -6 -21 -6q-26 0 -38 22z" />
    <glyph glyph-name="uni0655" unicode="&#x655;" 
d="M-241 -686q-9 16 -4 33q4 17 20 26l172 99q-25 7 -46 20q-46 28 -71 79q-25 52 -20 107q11 112 113 170q91 52 198 21q17 -5 26 -20q9 -16 4 -33q-5 -18 -21 -26q-16 -9 -33 -4q-72 20 -131 -14q-63 -35 -69 -102q-3 -31 11 -60q13 -29 38 -44q24 -15 58 -16q13 -1 26 0
q11 1 22 4q27 5 61 19l31 14l29 14q16 8 33 2q17 -5 25 -21q8 -15 3 -32t-20 -26l-396 -226q-10 -6 -21 -6q-26 0 -38 22z" />
    <glyph glyph-name="uni0670" unicode="&#x670;" 
d="M-21 1621q-18 4 -28 19q-9 15 -6 33q43 192 6 385q-4 18 6 33t28 18q18 4 33 -6t18 -28q41 -211 -6 -421q-7 -34 -42 -34z" />
    <glyph glyph-name="uni0656" unicode="&#x656;" 
d="M-13 -865q-18 4 -28 19q-9 15 -6 33q43 192 6 385q-4 18 6 33t28 18q18 4 33 -6t18 -28q41 -211 -6 -421q-7 -34 -42 -34z" />
    <glyph glyph-name="uni0615" unicode="&#x615;" 
d="M186 1363q53 51 41 111q-10 48 -47 62q-36 13 -87 -1q-46 -13 -80 -41q-82 -67 -162 -183q-3 -13 -14 -21l-4 -6q128 -14 226 12q78 22 127 67zM294 1487q19 -98 -61 -173q-62 -58 -155 -83q-123 -34 -284 -10q-15 -24 -30 -51q-9 -18 -29 -18q-9 0 -17 4q-12 7 -16 21
q-4 13 3 26q9 16 18 31q-64 14 -126 35q-13 4 -19 17q-7 13 -3 26q5 13 18 20q12 6 26 1q71 -23 141 -37q13 22 27 42q45 255 7 502q-2 14 7 25q8 11 22 14q14 2 25 -6q12 -9 14 -23q30 -197 9 -400q48 56 99 97q46 37 108 54q29 8 57 9q37 1 68 -10t53 -34q28 -31 38 -79z
" />
    <glyph glyph-name="wasla" 
d="M39 1669q30 0 54 6q33 8 54 25q19 16 26 38q8 23 1 41q-6 16 -22 25q-16 8 -41 7q-79 -3 -142 -80q-17 -21 -33 -48q53 -15 103 -14zM-172 1535q-17 7 -25 23t-2 33l16 41q-33 11 -64 15q-32 4 -68 -20q-11 -7 -21 -17l-5 -5l-2 -2l-1 -1q-11 -13 -29 -15q-18 -1 -32 10
q-14 12 -15 30q-2 18 10 31v1l1 1q2 1 3 3l10 10q18 16 37 29q61 39 123 31q42 -5 89 -21q22 42 49 74q88 108 206 112q48 2 85 -17q44 -24 62 -70q18 -45 3 -94q-15 -50 -56 -84q-61 -50 -162 -51q-70 -1 -141 21l-16 -41q-10 -29 -41 -29q-7 0 -14 2z" />
    <glyph glyph-name="beh_dotless_alt.init" horiz-adv-x="843" 
d="M-1 18q-33 0 -56 23t-23 56t23 56t56 23q264 0 350 19q121 27 169 105q37 62 11 205q-25 143 -102 303q-15 29 -4 60t40 45q30 15 61 4t45 -40q83 -173 114 -335q40 -209 -30 -324q-81 -132 -258 -175q-68 -17 -159 -22q-36 -2 -80 -3h-157z" />
    <glyph glyph-name="beh_dotless_alt.medi" horiz-adv-x="852" 
d="M851 176q33 0 56 -23t23 -56t-23 -56t-56 -23q-83 0 -151 30q-87 39 -143 126q-11 -16 -23 -30q-68 -75 -190 -104q-90 -22 -344 -22q-33 0 -56 23t-23 56t23 56t56 23q350 0 416 70q68 54 45 247q-16 177 -18 197q-3 32 18 58q21 25 53 28q33 3 58 -18t28 -54
q2 -20 6 -65q18 -235 58 -330q55 -133 187 -133z" />
    <glyph glyph-name="onedot.below" 
d="M121 -344q0 -47 -36 -85q-36 -37 -79 -37q-45 0 -96 36q-36 39 -36 86q0 42 38 81q40 41 84 41q45 0 84 -37q41 -39 41 -85z" />
    <glyph glyph-name="twodots.below" 
d="M-369 -406q-11 29 -1 59t35 43q287 146 597 87q27 -5 43 -31q17 -26 12 -57q-4 -32 -27 -51q-23 -18 -50 -13q-270 51 -520 -76q-13 -7 -27 -7q-44 0 -62 46z" />
    <glyph glyph-name="alef_alt.isol" horiz-adv-x="509" 
d="M282 -29q-33 4 -53 27q-21 23 -17 52q37 307 21 650q-9 210 -56 643q-3 30 18 53q21 22 54 25q32 3 57 -16q26 -18 29 -48q91 -851 34 -1322q-3 -28 -26 -46q-22 -18 -52 -18h-9z" />
    <glyph glyph-name="alef_alt.fina" horiz-adv-x="640" 
d="M588 18q-28 1 -52 4q-62 6 -110 25q-140 56 -178 220q-19 80 -18 421v96v96q-1 109 -3 192q-6 182 -24 303q-5 32 15 58q19 27 51 32q33 4 59 -15t31 -52q20 -128 26 -317q2 -85 3 -197v-276q0 -76 1 -130q3 -133 13 -175q19 -82 79 -108q44 -19 154 -19q32 0 55 -23
q24 -23 24 -56t-24 -56q-23 -23 -55 -23h-47z" />
    <glyph glyph-name="uni06D5" unicode="&#x6d5;" horiz-adv-x="990" 
d="M232 111q-113 98 -113 256q0 97 52 199q20 39 48 82q11 16 25 35l12 17l11 15q21 28 28 39q18 27 50 33q32 7 59 -11q28 -18 34 -51q6 -32 -12 -59q-9 -14 -32 -45l-9 -13l-10 -13l-20 -28q-22 -34 -38 -62q-40 -75 -40 -138q0 -91 65 -142q58 -46 144 -46q29 0 65 8
q45 10 82 28q99 52 99 152q0 129 -140 310q-127 165 -256 238q-28 17 -37 48q-9 32 8 60q16 29 47 37q32 9 60 -7q156 -89 303 -278q73 -94 116 -185q57 -120 57 -223q0 -175 -152 -273q-114 -73 -252 -73q-151 0 -254 90z" />
    <glyph glyph-name="heh_ae.fina" horiz-adv-x="1133" 
d="M743 243q-36 77 -58 187q-8 43 -16 98l-12 96q-14 113 -23 155q-6 24 -12 40q-2 7 -5 12q-2 4 -4 7q-5 -2 -13 -5q-153 -70 -282 -237q-126 -163 -105 -262q10 -51 82 -75q54 -18 139 -19q33 0 56 -24q23 -23 22 -56q0 -33 -24 -56q-23 -22 -56 -22q-158 2 -252 56
q-100 57 -122 163q-21 99 32 221q20 47 50 96q24 38 52 75q153 198 343 284q49 22 93 20q33 -2 61 -18q61 -34 89 -127q17 -58 36 -209q29 -242 74 -336q63 -131 203 -131q33 0 56 -23t23 -56t-23 -56t-56 -23q-242 0 -348 225z" />
    <glyph glyph-name="uni06C2" unicode="&#x6c2;" horiz-adv-x="993" 
d="M232 111q-113 98 -113 256q0 97 52 199q20 39 48 82q11 16 25 35l12 17l11 15q21 28 28 39q18 27 50 33q32 7 59 -11q28 -18 34 -51q6 -32 -12 -59q-9 -14 -32 -45l-9 -13l-10 -13l-20 -28q-22 -34 -38 -62q-40 -75 -40 -138q0 -91 65 -142q58 -46 144 -46q29 0 65 8
q45 10 82 28q99 52 99 152q0 129 -140 310q-127 165 -256 238q-28 17 -37 48q-9 32 8 60q16 29 47 37q32 9 60 -7q156 -89 303 -278q73 -94 116 -185q57 -120 57 -223q0 -175 -152 -273q-114 -73 -252 -73q-151 0 -254 90zM164 1147q-9 16 -4 33q4 17 20 26l172 99
q-25 7 -46 20q-46 28 -71 79q-25 52 -20 107q11 112 113 170q91 52 198 21q17 -5 26 -20q9 -16 4 -33q-5 -18 -21 -26q-16 -9 -33 -4q-72 20 -131 -14q-63 -35 -69 -102q-3 -31 11 -60q13 -29 38 -44q24 -15 58 -16q13 -1 26 0q11 1 22 4q27 5 61 19l31 14l29 14q16 8 33 2
q17 -5 25 -21q8 -15 3 -32t-20 -26l-396 -226q-10 -6 -21 -6q-26 0 -38 22z" />
    <glyph glyph-name="uni06C3" unicode="&#x6c3;" horiz-adv-x="983" 
d="M232 111q-113 98 -113 256q0 97 52 199q20 39 48 82q11 16 25 35l12 17l11 15q21 28 28 39q18 27 50 33q32 7 59 -11q28 -18 34 -51q6 -32 -12 -59q-9 -14 -32 -45l-9 -13l-10 -13l-20 -28q-22 -34 -38 -62q-40 -75 -40 -138q0 -91 65 -142q58 -46 144 -46q29 0 65 8
q45 10 82 28q99 52 99 152q0 129 -140 310q-127 165 -256 238q-28 17 -37 48q-9 32 8 60q16 29 47 37q32 9 60 -7q156 -89 303 -278q73 -94 116 -185q57 -120 57 -223q0 -175 -152 -273q-114 -73 -252 -73q-151 0 -254 90zM123 1220q-15 29 -5 61q10 31 39 46q184 95 402 83
q70 -4 135 -18q21 -5 40 -10q6 -2 12 -3l3 -2h2q31 -11 45 -40t4 -60q-11 -31 -40 -46q-28 -14 -59 -4h-1l-2 1q-4 1 -9 3q-14 3 -31 7q-52 11 -108 14q-177 9 -322 -66q-17 -9 -36 -9q-48 0 -69 43z" />
    <glyph glyph-name="uni06F0" unicode="&#x6f0;" horiz-adv-x="990" 
d="M395 697q-55 -39 -73 -95q-17 -55 5 -118q22 -62 73 -100q46 -33 106 -30q61 2 115 40q50 35 71 89q20 55 4 110q-17 57 -71 99q-55 42 -114 45q-62 -1 -116 -40zM323 279q-85 63 -120 165q-35 103 -5 198q32 97 122 161q88 63 191 64h3q102 -3 190 -71t117 -166
q28 -96 -6 -190q-34 -93 -120 -153q-90 -64 -197 -64q-99 0 -175 56z" />
    <glyph glyph-name="uni06F1" unicode="&#x6f1;" horiz-adv-x="662" 
d="M444 -42q-33 1 -56 25q-22 23 -21 56q8 309 -38 648q-56 420 -170 618q-17 28 -8 60q8 32 37 48q28 16 60 8q31 -9 48 -37q126 -220 188 -659q50 -357 41 -690q-1 -32 -24 -55q-23 -22 -55 -22h-2z" />
    <glyph glyph-name="uni06F2" unicode="&#x6f2;" horiz-adv-x="1137" 
d="M402 -49q-32 2 -54 26t-21 57q32 694 -215 1269q-13 30 -1 60q12 31 42 44t60 1t44 -42l16 -38l16 -39q79 -191 145 -251q63 -57 133 -72q70 -14 130 16q84 43 116 157q15 53 16 121q1 49 -6 113q-3 33 18 58q20 26 53 29t58 -17q25 -21 29 -54q8 -77 6 -137
q-2 -85 -22 -156q-50 -181 -196 -255q-112 -56 -236 -29q-58 12 -114 43q16 -72 28 -147q54 -330 38 -682q-1 -31 -24 -53t-55 -22h-4z" />
    <glyph glyph-name="uni06F3" unicode="&#x6f3;" horiz-adv-x="1439" 
d="M337 -13q-23 24 -23 56l1 82v82q0 92 -2 165q-6 185 -25 329q-24 182 -132 448l-24 58l-23 58l-19 47l-2 5q-12 31 1 61q12 30 43 42q30 13 60 0t43 -43l2 -6q9 -22 19 -48q7 -16 18 -44q15 -35 22 -53q60 -140 115 -197q66 -70 156 -60q49 5 80 44q40 51 55 150
q11 74 7 156q-2 16 -3 31v8l-1 4q-1 32 20 56t53 26q32 3 57 -17q24 -20 28 -52v-4q1 -3 1 -7q1 -13 2 -28l4 -36l8 -46q10 -57 26 -105q58 -180 162 -180h1q3 0 9 2t13 5q19 9 34 27q51 59 32 177q-15 97 -45 189q-10 31 5 61q14 29 46 39q31 10 60 -5q29 -14 39 -46
q34 -104 51 -213q17 -107 -8 -192q-18 -64 -59 -113q-75 -88 -176 -89q-126 -1 -215 101q-24 27 -45 62q-16 -32 -37 -59q-72 -90 -186 -103q-85 -10 -158 18q10 -51 18 -108q20 -152 26 -342q2 -75 2 -169v-85v-83q-1 -33 -24 -56t-55 -23q-34 0 -57 23z" />
    <glyph glyph-name="uni06F9" unicode="&#x6f9;" horiz-adv-x="1098" 
d="M370 1372q-58 -42 -90 -125q-33 -83 -20 -158q15 -90 78 -129q50 -30 127 -32q68 -1 130 19q28 9 55 -3l1 73q0 35 -1 63q-3 71 -13 122q-25 130 -110 176q-40 21 -77 21q-41 0 -80 -27zM778 24q-22 17 -29 44q-85 361 -97 731l-9 -3q-89 -29 -186 -26q-117 4 -201 55
q-125 76 -152 238q-20 119 30 245q50 125 144 192q153 110 325 17q139 -76 182 -254q17 -69 22 -159q2 -35 2 -78l-1 -75v-86q8 -389 95 -761q8 -32 -9 -60q-18 -27 -50 -35q-9 -2 -18 -2q-27 0 -48 17z" />
    <glyph glyph-name="uni06F7" unicode="&#x6f7;" horiz-adv-x="1291" 
d="M666 -53q-30 0 -53 20q-22 21 -25 51q-68 661 -459 1361q-16 28 -7 60q9 31 38 47q28 16 60 7q31 -9 47 -37q276 -493 402 -997q56 202 154 456q38 98 87 215q19 46 42 102l21 49l20 48q36 83 52 122q13 30 43 43q30 12 60 0q31 -13 43 -43q13 -30 0 -61
q-16 -39 -52 -123l-14 -32l-14 -34q-16 -38 -29 -69q-34 -81 -61 -149q-71 -175 -122 -321q-134 -386 -154 -642q-2 -31 -25 -52q-22 -21 -53 -21h-1z" />
    <glyph glyph-name="uni06F8" unicode="&#x6f8;" horiz-adv-x="1351" 
d="M189 -43q-30 14 -40 45q-10 32 5 61q153 303 273 645q145 412 182 723q4 30 26 50q23 20 53 20q31 0 53 -21q22 -20 25 -50q36 -351 187 -749q115 -303 288 -612q16 -28 7 -60q-9 -31 -38 -47q-28 -16 -60 -8q-31 9 -47 38q-128 228 -226 456q-123 286 -193 555
q-137 -512 -389 -1012q-22 -43 -71 -43q-19 0 -35 9z" />
    <glyph glyph-name="uni0651064B" 
d="M285 1907q16 -114 -60 -178q-44 -36 -102 -36q-29 0 -55 10q-36 14 -62 44q-22 -28 -49 -45q-40 -26 -88 -26q-36 0 -66 15q-72 36 -83 124q-9 64 25 134q8 17 25 23q17 5 33 -2q16 -8 22 -25t-2 -33q-9 -20 -14 -39q-6 -25 -3 -47q5 -42 36 -57q33 -17 69 6q34 22 49 69
q13 40 11 101q-1 18 11 31q13 13 31 14q18 0 31 -12t14 -30q2 -56 -7 -98q2 -5 3 -10q6 -41 45 -56q38 -14 70 12q39 33 30 98q-7 49 -53 122q-10 15 -5 32q4 18 19 28q15 9 33 5q17 -4 27 -19q55 -89 65 -155zM-257 2122q-6 17 1 33q8 16 25 22l433 154q17 6 33 -2
q16 -7 22 -24t-2 -34q-7 -16 -24 -22l-433 -153q-7 -3 -14 -3q-31 0 -41 29zM-257 2378q-6 17 1 33q8 17 25 23l433 153q17 6 33 -1q16 -8 22 -25t-2 -33q-7 -17 -24 -23l-433 -153q-7 -3 -14 -3q-31 0 -41 29z" />
    <glyph glyph-name="uni0654064B" 
d="M-254 2112q-6 17 1 33q8 16 25 22l433 154q17 6 33 -2q16 -7 22 -24t-2 -34q-7 -16 -24 -22l-433 -153q-7 -3 -14 -3q-31 0 -41 29zM-254 2368q-6 17 1 33q8 17 25 23l433 153q17 6 33 -1q16 -8 22 -25t-2 -33q-7 -17 -24 -23l-433 -153q-7 -3 -14 -3q-31 0 -41 29z
M-249 1479q-9 16 -4 33q4 17 20 26l172 99q-25 7 -46 20q-46 28 -71 79q-25 52 -20 107q11 112 113 170q91 52 198 21q17 -5 26 -20q9 -16 4 -33q-5 -18 -21 -26q-16 -9 -33 -4q-72 20 -131 -14q-63 -35 -69 -102q-3 -31 11 -60q13 -29 38 -44q24 -15 58 -16q13 -1 26 0
q11 1 22 4q27 5 61 19l31 14l29 14q16 8 33 2q17 -5 25 -21q8 -15 3 -32t-20 -26l-396 -226q-10 -6 -21 -6q-26 0 -38 22z" />
    <glyph glyph-name="uni0654064E" 
d="M-246 2108q-6 17 1 33q8 17 25 23l433 153q17 6 33 -1q16 -8 22 -25t-2 -33q-7 -17 -24 -23l-433 -153q-7 -3 -14 -3q-31 0 -41 29zM-249 1479q-9 16 -4 33q4 17 20 26l172 99q-25 7 -46 20q-46 28 -71 79q-25 52 -20 107q11 112 113 170q91 52 198 21q17 -5 26 -20
q9 -16 4 -33q-5 -18 -21 -26q-16 -9 -33 -4q-72 20 -131 -14q-63 -35 -69 -102q-3 -31 11 -60q13 -29 38 -44q24 -15 58 -16q13 -1 26 0q11 1 22 4q27 5 61 19l31 14l29 14q16 8 33 2q17 -5 25 -21q8 -15 3 -32t-20 -26l-396 -226q-10 -6 -21 -6q-26 0 -38 22z" />
    <glyph glyph-name="uni0654064C" 
d="M92 2579q-18 -14 -27 -35q-12 -24 -7 -50q14 -78 132 -115q56 90 40 159q-9 38 -47 54q-16 8 -34 8q-31 0 -57 -21zM-128 2099q-20 0 -33 15q-17 19 -8 43l6 16l6 16l13 36q7 20 10 36q8 38 -7 62q-10 16 -22 23q-5 2 -9 3l-3 1h-2q-39 4 -86 -47q-12 -13 -30 -14t-31 12
q-14 12 -14 30q-1 18 11 31q76 83 158 75q26 -3 50 -16q30 -18 52 -52q39 -64 9 -162q111 38 186 102l-24 10q-112 56 -132 159q-8 47 9 93q18 45 57 77q84 66 180 24q78 -34 97 -114q21 -90 -37 -200l20 -3q18 -2 29 -17q11 -14 8 -32q-2 -18 -17 -29q-14 -11 -32 -8
q-34 5 -63 11q-71 -77 -186 -129q-43 -19 -89 -33q-34 -11 -67 -18zM-249 1479q-9 16 -4 33q4 17 20 26l172 99q-25 7 -46 20q-46 28 -71 79q-25 52 -20 107q11 112 113 170q91 52 198 21q17 -5 26 -20q9 -16 4 -33q-5 -18 -21 -26q-16 -9 -33 -4q-72 20 -131 -14
q-63 -35 -69 -102q-3 -31 11 -60q13 -29 38 -44q24 -15 58 -16q13 -1 26 0q11 1 22 4q27 5 61 19l31 14l29 14q16 8 33 2q17 -5 25 -21q8 -15 3 -32t-20 -26l-396 -226q-10 -6 -21 -6q-26 0 -38 22z" />
    <glyph glyph-name="uni0654064F" 
d="M48 2600l-12 -5q-4 -2 -9 -4q-29 -17 -47 -45q-18 -27 -16 -52q3 -36 49 -67q36 -24 98 -44q45 82 34 150q-6 40 -35 62q-15 10 -34 10q-14 0 -28 -5zM-241 2140q-4 18 5 33q9 16 26 20q184 48 264 118q-167 63 -177 176q-4 50 25 100q30 49 82 79q98 56 176 -1
q59 -42 71 -119q14 -86 -34 -186l11 -3l10 -2q18 -4 27 -19q10 -15 6 -33t-19 -27q-15 -10 -33 -6l-11 3l-13 2q-15 4 -28 7q-95 -111 -335 -173q-5 -1 -11 -1q-33 0 -42 32zM-249 1479q-9 16 -4 33q4 17 20 26l172 99q-25 7 -46 20q-46 28 -71 79q-25 52 -20 107
q11 112 113 170q91 52 198 21q17 -5 26 -20q9 -16 4 -33q-5 -18 -21 -26q-16 -9 -33 -4q-72 20 -131 -14q-63 -35 -69 -102q-3 -31 11 -60q13 -29 38 -44q24 -15 58 -16q13 -1 26 0q11 1 22 4q27 5 61 19l31 14l29 14q16 8 33 2q17 -5 25 -21q8 -15 3 -32t-20 -26l-396 -226
q-10 -6 -21 -6q-26 0 -38 22z" />
    <glyph glyph-name="uni06540652" 
d="M18 2238q38 -1 62 23q19 19 29 50q8 25 8 51q0 51 -43 89q-39 35 -85 30q-26 -2 -46 -16q-15 -10 -27 -26q-31 -44 -18 -101q11 -46 43 -73t76 -27h1zM17 2151q-74 0 -130 46q-56 47 -74 122q-22 94 33 171q49 69 134 78q84 9 152 -52q72 -65 72 -154q0 -101 -63 -163
q-49 -48 -122 -48h-2zM-249 1479q-9 16 -4 33q4 17 20 26l172 99q-25 7 -46 20q-46 28 -71 79q-25 52 -20 107q11 112 113 170q91 52 198 21q17 -5 26 -20q9 -16 4 -33q-5 -18 -21 -26q-16 -9 -33 -4q-72 20 -131 -14q-63 -35 -69 -102q-3 -31 11 -60q13 -29 38 -44
q24 -15 58 -16q13 -1 26 0q11 1 22 4q27 5 61 19l31 14l29 14q16 8 33 2q17 -5 25 -21q8 -15 3 -32t-20 -26l-396 -226q-10 -6 -21 -6q-26 0 -38 22z" />
    <glyph glyph-name="uni0655064D" 
d="M-248 -1159q-6 17 1 33q8 16 25 22l433 154q17 6 33 -2q16 -7 22 -24t-2 -34q-7 -16 -24 -22l-433 -153q-7 -3 -14 -3q-31 0 -41 29zM-248 -903q-6 17 1 33q8 17 25 23l433 153q17 6 33 -1q16 -8 22 -25t-2 -33q-7 -17 -24 -23l-433 -153q-7 -3 -14 -3q-31 0 -41 29z
M-241 -686q-9 16 -4 33q4 17 20 26l172 99q-25 7 -46 20q-46 28 -71 79q-25 52 -20 107q11 112 113 170q91 52 198 21q17 -5 26 -20q9 -16 4 -33q-5 -18 -21 -26q-16 -9 -33 -4q-72 20 -131 -14q-63 -35 -69 -102q-3 -31 11 -60q13 -29 38 -44q24 -15 58 -16q13 -1 26 0
q11 1 22 4q27 5 61 19l31 14l29 14q16 8 33 2q17 -5 25 -21q8 -15 3 -32t-20 -26l-396 -226q-10 -6 -21 -6q-26 0 -38 22z" />
    <glyph glyph-name="uni06550650" 
d="M-254 -912q-6 17 1 33q8 17 25 23l433 153q17 6 33 -1q16 -8 22 -25t-2 -33q-7 -17 -24 -23l-433 -153q-7 -3 -14 -3q-31 0 -41 29zM-241 -686q-9 16 -4 33q4 17 20 26l172 99q-25 7 -46 20q-46 28 -71 79q-25 52 -20 107q11 112 113 170q91 52 198 21q17 -5 26 -20
q9 -16 4 -33q-5 -18 -21 -26q-16 -9 -33 -4q-72 20 -131 -14q-63 -35 -69 -102q-3 -31 11 -60q13 -29 38 -44q24 -15 58 -16q13 -1 26 0q11 1 22 4q27 5 61 19l31 14l29 14q16 8 33 2q17 -5 25 -21q8 -15 3 -32t-20 -26l-396 -226q-10 -6 -21 -6q-26 0 -38 22z" />
    <glyph glyph-name="uniFD3E" unicode="&#xfd3e;" horiz-adv-x="930" 
d="M674 -611q-32 0 -55 23q-277 270 -400 560q-115 274 -115 620q0 350 129 636t399 534q24 22 57 21q32 -2 54 -26q23 -24 21 -57q-1 -32 -25 -55q-247 -227 -362 -480q-115 -254 -115 -573q0 -321 111 -574t356 -493q24 -23 24 -56t-23 -56q-23 -24 -56 -24z" />
    <glyph glyph-name="uniFD3F" unicode="&#xfd3f;" horiz-adv-x="874" 
d="M138 -587q-23 23 -23 56q1 33 24 56q246 240 356 493q111 253 111 574q0 319 -114 573q-115 253 -362 480q-25 23 -26 55q-1 33 21 57t55 26q32 1 57 -21q270 -248 398 -534q129 -286 129 -636q0 -346 -115 -620q-123 -290 -399 -560q-23 -23 -55 -23q-34 0 -57 24z" />
    <glyph glyph-name="diagonal" horiz-adv-x="1024" 
d="M139 1462q-4 11 -4 22q0 12 5 24q10 22 33 31q249 94 576 292q14 9 30 9q7 0 15 -2q24 -6 36 -27q9 -14 9 -30q0 -7 -2 -15q-6 -24 -27 -36q-336 -204 -594 -302q-11 -4 -22 -4q-40 0 -55 38z" />
    <glyph glyph-name="ZWSP" unicode="&#x200b;" 
 />
    <glyph glyph-name="uni200C" unicode="&#x200c;" 
d="M36 1667v-1484h-72v1484h72z" />
    <glyph glyph-name="uni200D" unicode="&#x200d;" 
d="M36 183h-72v1185l-134 -136l-49 49l171 169l-171 168l49 49l170 -171l170 171l49 -49l-171 -168l171 -169l-49 -49l-134 136v-1185z" />
    <glyph glyph-name="uni200E" unicode="&#x200e;" 
d="M430 1452l-217 -214l-49 49l137 130h-266v-1234h-71v1305h337l-137 130l49 49z" />
    <glyph glyph-name="uni200F" unicode="&#x200f;" 
d="M35 183h-71v1234h-266l137 -130l-49 -49l-217 214l217 215l49 -49l-137 -130h337v-1305z" />
    <glyph glyph-name="saryaa" 
d="M-178 1457q-17 0 -29 12q-13 11 -14 29t11 31q12 14 30 15q52 3 114 28q69 28 96 64q8 11 11 22q1 7 -1 15q-4 20 -90 33l-24 4l-23 5q-26 5 -44 14q-61 28 -60 92q3 96 84 170q51 45 122 71q70 25 134 20q18 -2 30 -16q12 -13 10 -31q-1 -18 -15 -30t-32 -10
q-46 4 -100 -16q-53 -19 -91 -53q-22 -20 -36 -44q-18 -30 -19 -63q0 -7 9 -12q11 -4 30 -8l19 -4l19 -3l24 -3l25 -5q28 -7 49 -16q53 -25 64 -77q13 -57 -26 -108q-40 -53 -130 -90q-77 -31 -144 -36h-3z" />
    <glyph glyph-name="exclam" unicode="!" horiz-adv-x="579" 
d="M232 443q-24 23 -24 56v1049q0 33 24 56q23 24 55 24q33 0 56 -24q24 -23 24 -56v-1049q0 -33 -24 -56q-23 -23 -56 -23q-32 0 -55 23zM415 127q0 -52 -37 -90q-38 -37 -91 -37q-52 0 -90 37q-37 38 -37 90q0 53 37 91q38 37 90 37q53 0 91 -37q37 -38 37 -91z" />
    <glyph glyph-name="parenleft" unicode="(" horiz-adv-x="818" 
d="M598 -473q-31 0 -54 22l-2 2l-4 4q-7 6 -15 15q-23 24 -48 54q-78 95 -143 205q-89 150 -141 314q-69 216 -69 436q0 208 65 413q49 156 132 300q61 106 134 196q24 29 46 53q7 8 13 15l5 5h1q23 23 56 23t56 -24q23 -23 22 -56q0 -33 -23 -55v-1l-4 -4q-6 -5 -12 -12
q-19 -21 -40 -47q-66 -82 -120 -177q-73 -127 -116 -265q-57 -181 -57 -364q0 -195 61 -386q46 -145 124 -279q58 -99 128 -185q23 -26 43 -48q7 -7 12 -13l5 -4v-1q24 -22 24 -55q1 -33 -21 -56q-24 -25 -58 -25z" />
    <glyph glyph-name="parenright" unicode=")" horiz-adv-x="794" 
d="M144 -448q-23 23 -22 56t25 55v1l4 4q6 6 12 13q21 22 43 48q70 86 128 185q78 134 124 279q61 191 61 386q0 183 -57 364q-43 138 -116 265q-54 95 -120 177q-20 26 -40 47q-6 7 -11 12l-4 4v1q-24 22 -24 55t23 56q23 24 55 24q33 0 56 -23h1l5 -5q6 -7 14 -15
q22 -24 45 -53q74 -90 135 -196q83 -144 132 -300q64 -205 64 -413q0 -220 -68 -436q-53 -164 -141 -314q-65 -110 -144 -205q-24 -30 -48 -54q-8 -9 -14 -15q-3 -2 -4 -4l-2 -2q-23 -22 -55 -22q-34 0 -57 25z" />
    <glyph glyph-name="period" unicode="." horiz-adv-x="652" 
d="M213 89q35 37 99 37q65 0 101 -37q34 -35 34 -93q0 -54 -34 -88q-37 -36 -101 -36t-99 36q-33 33 -33 88q0 58 33 93z" />
    <glyph glyph-name="colon" unicode=":" horiz-adv-x="600" 
d="M201 89q35 37 99 37t101 -37q34 -35 34 -93q0 -54 -34 -88q-37 -36 -101 -36t-99 36q-33 33 -33 88q0 58 33 93zM202 898q35 37 99 37q65 0 101 -37q34 -35 34 -93q0 -55 -34 -88q-37 -36 -101 -36q-63 0 -99 36q-33 33 -33 88q0 58 33 93z" />
    <glyph glyph-name="quotedbl" unicode="&#x22;" horiz-adv-x="660" 
d="M273 1568l-23 -352h-89l3 509h109v-157zM538 1568l-23 -352h-90l4 509h109v-157z" />
    <glyph glyph-name="numbersign" unicode="#" horiz-adv-x="1338" 
d="M846 460h-353l-86 -460h-112l87 460h-287v105h306l93 495h-313v108h333l89 467h111l-88 -467h353l89 467h112l-88 -467h257v-108h-278l-93 -495h287v-105h-307l-87 -460h-112zM512 565h354l93 495h-354z" />
    <glyph glyph-name="dollar" unicode="$" horiz-adv-x="1275" 
d="M1012 403q0 125 -81 204t-285 150q-254 80 -356 189.5t-102 283.5q0 183 112 297t305 129v227h115v-227q198 -17 306 -147.5t108 -354.5h-133q0 177 -91.5 281t-250.5 104t-248.5 -84t-89.5 -223q0 -135 82 -210.5t279 -142.5t286.5 -128t134 -145t44.5 -201
q0 -184 -115.5 -296.5t-316.5 -128.5v-214h-113v213q-226 14 -349.5 141.5t-123.5 348.5h135q0 -175 102 -274.5t285 -99.5q160 0 260.5 85.5t100.5 222.5z" />
    <glyph glyph-name="percent" unicode="%" horiz-adv-x="1699" 
d="M122 1321q0 146 90.5 242t230.5 96q139 0 229.5 -96t90.5 -249v-80q0 -144 -89.5 -240t-228.5 -96q-138 0 -230.5 94.5t-92.5 249.5v79zM231 1234q0 -104 58 -171.5t156 -67.5q95 0 152 68t57 176v82q0 104 -58.5 172t-153.5 68q-93 0 -152 -67.5t-59 -179.5v-80z
M946 401q0 146 90 241.5t229 95.5q138 0 229.5 -95t91.5 -250v-80q0 -146 -90.5 -241.5t-228.5 -95.5t-229.5 95t-91.5 248v82zM1053 313q0 -105 58 -172.5t156 -67.5q96 0 153 68t57 178v82q0 108 -58 173.5t-154 65.5q-95 0 -153.5 -66t-58.5 -178v-83zM487 136l-84 54
l799 1278l84 -54z" />
    <glyph glyph-name="ampersand" unicode="&#x26;" horiz-adv-x="1415" 
d="M454 892q-98 118 -142.5 210.5t-44.5 183.5q0 172 102.5 272t274.5 100q156 0 252.5 -90.5t96.5 -229.5q0 -162 -187 -318l-179 -140l449 -523q102 165 102 374h125q0 -278 -144 -470l223 -261h-161l-142 164q-88 -88 -204.5 -137t-245.5 -49q-234 0 -371 119.5
t-137 319.5q0 119 70.5 225t246.5 238zM629 91q102 0 198 43t173 123l-458 530l-15 17l-52 -39q-220 -180 -220 -348q0 -147 101 -236.5t273 -89.5zM402 1290q0 -137 152 -323l147 112q72 52 118 113.5t46 145.5q0 87 -61 146t-162 59q-110 0 -175 -70.5t-65 -182.5z" />
    <glyph glyph-name="quotesingle" unicode="'" horiz-adv-x="391" 
d="M254 1567l-19 -343h-101q5 333 5 501h115v-158z" />
    <glyph glyph-name="asterisk" unicode="*" horiz-adv-x="976" 
d="M405 1123l-372 121l36 114l372 -138l-4 415h117l-9 -419l364 143l37 -114l-374 -129l250 -330l-95 -71l-241 343l-229 -340l-95 68z" />
    <glyph glyph-name="plus" unicode="+" horiz-adv-x="1298" 
d="M708 831h497v-126h-497v-541h-136v541h-488v126h488v523h136v-523z" />
    <glyph glyph-name="comma" unicode="," horiz-adv-x="440" 
d="M147 -305l-80 58q103 137 106 284v174h131v-140q0 -234 -157 -376z" />
    <glyph glyph-name="hyphen" unicode="-" horiz-adv-x="658" 
d="M593 665h-538v113h538v-113z" />
    <glyph glyph-name="slash" unicode="/" horiz-adv-x="913" 
d="M156 -140h-122l683 1775h121z" />
    <glyph glyph-name="zero" unicode="0" horiz-adv-x="1275" 
d="M1140 682q0 -346 -127 -525t-374 -179q-243 0 -372 175.5t-132 511.5v293q0 345 128 522.5t374 177.5q242 0 370 -171.5t133 -504.5v-300zM1005 975q0 281 -91.5 424.5t-276.5 143.5q-182 0 -274 -140.5t-95 -414.5v-321q0 -280 95 -428t276 -148q180 0 272.5 145
t93.5 424v315z" />
    <glyph glyph-name="one" unicode="1" horiz-adv-x="1275" 
d="M779 0h-134v1473l-445 -165v126l557 207h22v-1641z" />
    <glyph glyph-name="two" unicode="2" horiz-adv-x="1275" 
d="M1178 0h-1024v103l560 636q140 161 193.5 265t53.5 203q0 155 -91 245.5t-250 90.5q-165 0 -266.5 -105.5t-101.5 -274.5h-134q0 139 62.5 252t177.5 178t262 65q225 0 351 -118t126 -321q0 -115 -71 -251t-251 -339l-456 -516h859v-113z" />
    <glyph glyph-name="three" unicode="3" horiz-adv-x="1275" 
d="M453 891h139q116 0 202 41t131.5 112t45.5 164q0 158 -88.5 246.5t-254.5 88.5q-157 0 -257.5 -92.5t-100.5 -244.5h-135q0 127 64 232t177.5 162.5t251.5 57.5q222 0 350 -121.5t128 -332.5q0 -118 -74.5 -217.5t-204.5 -148.5q152 -43 231 -147t79 -247
q0 -210 -137 -338t-367 -128q-146 0 -267.5 58t-188.5 163t-67 245h135q0 -156 109 -254.5t279 -98.5q174 0 271.5 89.5t97.5 258.5q0 164 -105 250.5t-310 86.5h-134v115z" />
    <glyph glyph-name="four" unicode="4" horiz-adv-x="1275" 
d="M979 527h255v-114h-255v-413h-134v413h-770v77l757 1145h147v-1108zM240 527h605v934l-60 -103z" />
    <glyph glyph-name="five" unicode="5" horiz-adv-x="1275" 
d="M245 838l80 797h817v-125h-702l-57 -552q131 90 308 90q221 0 352.5 -144t131.5 -383q0 -258 -128 -400.5t-361 -142.5q-213 0 -345.5 119t-151.5 333h129q19 -167 113.5 -253t254.5 -86q175 0 264.5 111t89.5 317q0 180 -100 293t-273 113q-95 0 -166 -24t-149 -94z" />
    <glyph glyph-name="six" unicode="6" horiz-adv-x="1275" 
d="M947 1648v-118h-16q-293 0 -461.5 -172.5t-186.5 -479.5q67 93 171.5 144.5t233.5 51.5q216 0 343.5 -149t127.5 -389q0 -160 -59.5 -288t-170.5 -199t-254 -71q-235 0 -382 170t-147 439v135q0 439 200 680t567 246h34zM667 958q-128 0 -238.5 -76t-147.5 -192v-115
q0 -213 109.5 -348t284.5 -135q157 0 254 124.5t97 314.5q0 193 -97 310t-262 117z" />
    <glyph glyph-name="seven" unicode="7" horiz-adv-x="1275" 
d="M1161 1558l-698 -1558h-141l694 1521h-930v114h1075v-77z" />
    <glyph glyph-name="eight" unicode="8" horiz-adv-x="1275" 
d="M1117 1214q0 -127 -74 -227.5t-195 -147.5q141 -48 226.5 -156t85.5 -250q0 -210 -142.5 -332.5t-377.5 -122.5q-237 0 -379 122t-142 333q0 140 82 249t225 157q-122 47 -193.5 147.5t-71.5 227.5q0 203 130.5 323.5t346.5 120.5t347.5 -121.5t131.5 -322.5zM1025 432
q0 153 -109 251.5t-278 98.5q-170 0 -277.5 -97t-107.5 -253t104.5 -248.5t282.5 -92.5q174 0 279.5 92t105.5 249zM983 1215q0 141 -97.5 234.5t-247.5 93.5q-153 0 -248 -90.5t-95 -237.5q0 -144 95 -231.5t249 -87.5q152 0 248 88.5t96 230.5z" />
    <glyph glyph-name="nine" unicode="9" horiz-adv-x="1275" 
d="M993 757q-72 -106 -178.5 -163.5t-231.5 -57.5q-139 0 -246 71.5t-165.5 198.5t-58.5 278q0 161 62.5 293.5t174.5 206.5t258 74q246 0 383 -172.5t137 -489.5v-121q0 -443 -189 -665t-576 -222h-25l1 116h47q293 5 446 166.5t161 486.5zM600 651q134 0 241.5 80.5
t152.5 208.5v77q0 250 -104 387.5t-280 137.5q-160 0 -262 -128.5t-102 -324.5q0 -187 98 -312.5t256 -125.5z" />
    <glyph glyph-name="semicolon" unicode=";" horiz-adv-x="448" 
d="M133 1117q0 40 25 67.5t70 27.5t71 -27.5t26 -66.5q0 -40 -26 -65t-71 -25t-70 25t-25 64zM147 -305l-80 58q103 137 106 284v174h131v-140q0 -234 -157 -376z" />
    <glyph glyph-name="less" unicode="&#x3c;" horiz-adv-x="1176" 
d="M234 736l781 -337v-142l-929 426v109l929 424v-141z" />
    <glyph glyph-name="equal" unicode="=" horiz-adv-x="1272" 
d="M1104 931h-937v119h937v-119zM1104 469h-937v119h937v-119z" />
    <glyph glyph-name="greater" unicode="&#x3e;" horiz-adv-x="1192" 
d="M938 740l-799 340v139l949 -425v-109l-949 -426v140z" />
    <glyph glyph-name="question" unicode="?" horiz-adv-x="1044" 
d="M422 454q3 132 36.5 213t144.5 190.5t143 155t49.5 100t17.5 123.5q0 141 -74.5 221t-208.5 80q-135 0 -217.5 -76.5t-84.5 -208.5h-134q3 184 125 295t311 111q193 0 305 -113t112 -306q0 -122 -55 -228t-209 -247q-127 -107 -127 -310h-134zM404 79q0 38 24.5 64.5
t67.5 26.5t68.5 -26.5t25.5 -64.5q0 -37 -25.5 -62.5t-68.5 -25.5t-67.5 25.5t-24.5 62.5z" />
    <glyph glyph-name="at" unicode="@" horiz-adv-x="2100" 
d="M1970 576q-6 -165 -61 -306t-152 -216.5t-225 -75.5q-109 0 -177.5 57t-91.5 160q-121 -217 -334 -217q-157 0 -234 136q-62 107 -62 276q0 43 4 90q17 183 83.5 326t174 223.5t229.5 80.5q87 0 152 -24.5t151 -97.5l-57 -640q-2 -26 -2 -49q0 -95 40 -160t137 -65
q138 0 224 135.5t96 366.5q2 46 2 90q0 388 -184.5 606t-578.5 218q-237 0 -427.5 -118.5t-300.5 -335t-123 -499.5q-2 -38 -2 -76q0 -236 82.5 -436.5t260.5 -316.5t423 -116q104 0 204 25t167 64l35 -90q-64 -42 -178.5 -71t-231.5 -29q-281 0 -483 126.5t-302 364.5
q-89 210 -89 484q0 35 1 71q14 312 138 553t339.5 373t490.5 132q287 0 485.5 -119.5t294.5 -349.5q84 -203 84 -474q0 -38 -2 -76zM756 321q12 -112 62.5 -173.5t133.5 -61.5q208 0 307 287l50 579q-75 55 -177 55q-125 0 -216.5 -99t-133.5 -274q-31 -125 -31 -232
q0 -42 5 -81z" />
    <glyph glyph-name="A" unicode="A" horiz-adv-x="1436" 
d="M1089 458h-742l-168 -458h-145l618 1635h132l619 -1635h-144zM390 576h656l-328 891z" />
    <glyph glyph-name="B" unicode="B" horiz-adv-x="1409" 
d="M207 0v1635h483q262 0 398 -108.5t136 -319.5q0 -127 -69 -220.5t-189 -134.5q142 -31 229.5 -140t87.5 -252q0 -216 -140 -338t-389 -122h-547zM345 786v-669h414q178 0 281.5 90.5t103.5 250.5q0 152 -99 240t-275 88h-425zM345 902h377q173 3 268 81t95 228
q0 157 -98.5 231.5t-296.5 74.5h-345v-615z" />
    <glyph glyph-name="C" unicode="C" horiz-adv-x="1494" 
d="M1365 510q-29 -258 -185.5 -395t-416.5 -137q-182 0 -322 90.5t-216.5 257.5t-77.5 382v212q0 218 76.5 386.5t219.5 260t330 91.5q262 0 414.5 -142.5t177.5 -392.5h-140q-51 417 -452 417q-223 0 -355 -166.5t-132 -459.5v-200q0 -283 129 -451.5t348 -168.5
q216 0 326 104t136 312h140z" />
    <glyph glyph-name="D" unicode="D" horiz-adv-x="1506" 
d="M207 0v1635h457q201 0 360.5 -91.5t248.5 -262t89 -388.5v-151q0 -219 -88.5 -388.5t-249.5 -261.5t-370 -92h-447zM345 1517v-1400h310q258 0 414 171t156 463v144q0 282 -153.5 451.5t-405.5 170.5h-321z" />
    <glyph glyph-name="E" unicode="E" horiz-adv-x="1308" 
d="M1110 784h-765v-667h879v-117h-1017v1635h1012v-118h-874v-616h765v-117z" />
    <glyph glyph-name="F" unicode="F" horiz-adv-x="1294" 
d="M1107 764h-762v-764h-138v1635h1013v-118h-875v-635h762v-118z" />
    <glyph glyph-name="G" unicode="G" horiz-adv-x="1572" 
d="M1387 194q-72 -102 -225.5 -159t-342.5 -57q-192 0 -341.5 92t-231.5 260.5t-83 386.5v206q0 340 171.5 537.5t461.5 197.5q253 0 407 -129t183 -354h-138q-31 179 -147 272t-304 93q-229 0 -362.5 -163t-133.5 -459v-194q0 -186 63.5 -329t182 -222t272.5 -79
q178 0 306 56q83 38 124 87v422h-439v117h577v-582z" />
    <glyph glyph-name="H" unicode="H" horiz-adv-x="1627" 
d="M1418 0h-139v784h-934v-784h-138v1635h138v-734h934v734h139v-1635z" />
    <glyph glyph-name="I" unicode="I" horiz-adv-x="612" 
d="M375 0h-138v1635h138v-1635z" />
    <glyph glyph-name="J" unicode="J" horiz-adv-x="1266" 
d="M929 1635h139v-1149q0 -232 -134 -370t-360 -138q-238 0 -366 124.5t-128 347.5h138q0 -177 93 -266.5t263 -89.5q156 0 254.5 103.5t100.5 280.5v1157z" />
    <glyph glyph-name="K" unicode="K" horiz-adv-x="1451" 
d="M575 812l-230 -227v-585h-138v1635h138v-881l838 881h174l-685 -728l737 -907h-168z" />
    <glyph glyph-name="L" unicode="L" horiz-adv-x="1212" 
d="M346 117h807v-117h-946v1635h139v-1518z" />
    <glyph glyph-name="M" unicode="M" horiz-adv-x="1990" 
d="M390 1635l603 -1443l605 1443h184v-1635h-138v712l11 730l-608 -1442h-107l-606 1436l11 -719v-717h-138v1635h183z" />
    <glyph glyph-name="N" unicode="N" horiz-adv-x="1633" 
d="M1424 0h-138l-940 1399v-1399h-139v1635h139l941 -1400v1400h137v-1635z" />
    <glyph glyph-name="O" unicode="O" horiz-adv-x="1557" 
d="M1415 729q0 -226 -78 -396.5t-223 -262.5t-335 -92q-286 0 -462.5 204.5t-176.5 553.5v168q0 224 79.5 396t224 265t333.5 93t333 -91t223 -257.5t82 -385.5v-195zM1277 906q0 296 -133.5 463t-366.5 167q-228 0 -363 -167.5t-135 -468.5v-171q0 -291 134.5 -461
t365.5 -170q235 0 366.5 167.5t131.5 467.5v173z" />
    <glyph glyph-name="P" unicode="P" horiz-adv-x="1416" 
d="M345 666v-666h-138v1635h557q255 0 402.5 -130t147.5 -358q0 -231 -142 -356t-412 -125h-415zM345 783h419q201 0 306.5 95.5t105.5 265.5t-105 270.5t-298 102.5h-428v-734z" />
    <glyph glyph-name="Q" unicode="Q" horiz-adv-x="1557" 
d="M1411 729q0 -234 -83 -407.5t-235 -261.5l297 -260l-95 -85l-334 288q-92 -25 -187 -25q-187 0 -332.5 92t-225 261t-80.5 390v183q0 224 79 396t224 265t333 93q190 0 335 -92.5t224.5 -264t79.5 -396.5v-176zM1272 906q0 296 -133.5 463t-366.5 167
q-227 0 -362.5 -167.5t-135.5 -468.5v-171q0 -291 134 -461t366 -170q233 0 365.5 167t132.5 467v174z" />
    <glyph glyph-name="R" unicode="R" horiz-adv-x="1460" 
d="M818 681h-475v-681h-140v1635h531q262 0 409 -127t147 -355q0 -157 -92 -277t-247 -166l409 -695v-15h-147zM343 798h423q174 0 279.5 99t105.5 256q0 173 -110 268.5t-309 95.5h-389v-719z" />
    <glyph glyph-name="S" unicode="S" horiz-adv-x="1362" 
d="M1132 402q0 136 -95.5 215t-349.5 150.5t-370 155.5q-167 119 -167 312q0 188 154.5 305.5t395.5 117.5q163 0 291.5 -63t199 -175.5t70.5 -250.5h-139q0 167 -114.5 269t-307.5 102q-188 0 -299 -84t-111 -218q0 -125 100 -203.5t320 -138.5t333.5 -125t170.5 -154.5
t57 -212.5q0 -193 -154.5 -309.5t-406.5 -116.5q-173 0 -317.5 61.5t-219 172.5t-74.5 255h138q0 -173 129 -273t344 -100q191 0 306.5 84.5t115.5 223.5z" />
    <glyph glyph-name="T" unicode="T" horiz-adv-x="1373" 
d="M1316 1517h-560v-1517h-138v1517h-560v118h1258v-118z" />
    <glyph glyph-name="U" unicode="U" horiz-adv-x="1512" 
d="M1333 1635v-1116q-1 -165 -73 -287.5t-202.5 -188t-300.5 -65.5q-258 0 -413.5 140.5t-161.5 390.5v1126h137v-1106q0 -207 118 -321t320 -114t319.5 114.5t117.5 319.5v1107h139z" />
    <glyph glyph-name="V" unicode="V" horiz-adv-x="1418" 
d="M700 202l9 -35l10 35l514 1433h152l-609 -1635h-132l-609 1635h150z" />
    <glyph glyph-name="W" unicode="W" horiz-adv-x="2062" 
d="M509 441l50 -253l62 242l355 1205h125l350 -1205l61 -245l54 256l295 1194h141l-419 -1635h-132l-371 1279l-41 162l-41 -162l-379 -1279h-133l-417 1635h141z" />
    <glyph glyph-name="X" unicode="X" horiz-adv-x="1407" 
d="M704 943l461 692h165l-542 -806l559 -829h-167l-476 714l-478 -714h-164l559 829l-542 806h165z" />
    <glyph glyph-name="Y" unicode="Y" horiz-adv-x="1377" 
d="M686 743l500 892h159l-590 -1020v-615h-138v615l-590 1020h164z" />
    <glyph glyph-name="Z" unicode="Z" horiz-adv-x="1376" 
d="M268 117h1010v-117h-1177v104l970 1413h-941v118h1112v-99z" />
    <glyph glyph-name="bracketleft" unicode="[" horiz-adv-x="551" 
d="M554 1754h-236v-1990h236v-114h-371v2219h371v-115z" />
    <glyph glyph-name="backslash" unicode="\" horiz-adv-x="906" 
d="M54 1635h131l683 -1775h-131z" />
    <glyph glyph-name="bracketright" unicode="]" horiz-adv-x="551" 
d="M0 1869h372v-2219h-372v114h237v1990h-237v115z" />
    <glyph glyph-name="asciicircum" unicode="^" horiz-adv-x="957" 
d="M473 1458l-256 -639h-131l336 816h101l335 -816h-130z" />
    <glyph glyph-name="underscore" unicode="_" horiz-adv-x="993" 
d="M991 -113h-990v113h990v-113z" />
    <glyph glyph-name="grave" unicode="`" horiz-adv-x="657" 
d="M492 1398h-123l-253 314h161z" />
    <glyph glyph-name="a" unicode="a" horiz-adv-x="1232" 
d="M942 0q-20 57 -26 170q-70 -93 -179.5 -142.5t-232.5 -49.5q-175 0 -283.5 97.5t-108.5 246.5q0 178 148 281t412 103h243v139q0 130 -80 204.5t-234 74.5q-141 0 -233 -72t-92 -173l-134 1q0 145 134.5 251.5t331.5 106.5q203 0 320.5 -102t120.5 -284v-575
q0 -176 37 -264v-13h-144zM520 97q135 0 241 65t154 174v267h-240q-201 -2 -314.5 -73.5t-113.5 -195.5q0 -103 76 -170t197 -67z" />
    <glyph glyph-name="b" unicode="b" horiz-adv-x="1275" 
d="M1153 595q0 -284 -125.5 -450.5t-337.5 -166.5q-254 0 -385 188l-5 -166h-126v1725h134v-686q128 199 379 199q216 0 341 -164.5t125 -458.5v-20zM1019 619q0 240 -93.5 371t-262.5 131q-130 0 -219.5 -63.5t-135.5 -186.5v-548q101 -229 357 -229q166 0 260 131.5
t94 393.5z" />
    <glyph glyph-name="c" unicode="c" horiz-adv-x="1185" 
d="M624 91q141 0 236 79t102 205h130q-6 -111 -70 -202.5t-170 -143t-228 -51.5q-239 0 -378.5 166t-139.5 447v40q0 180 62.5 318t180 213.5t274.5 75.5q200 0 330 -119t139 -314h-130q-9 143 -102.5 230.5t-236.5 87.5q-182 0 -282.5 -131.5t-100.5 -368.5v-39
q0 -232 100.5 -362.5t283.5 -130.5z" />
    <glyph glyph-name="d" unicode="d" horiz-adv-x="1278" 
d="M121 619q0 283 126.5 451t343.5 168q246 0 375 -195v682h133v-1725h-125l-6 162q-129 -184 -380 -184q-210 0 -338.5 169t-128.5 456v16zM257 595q0 -232 93.5 -366.5t262.5 -134.5q248 0 353 219v571q-105 237 -351 237q-169 0 -263.5 -133t-94.5 -393z" />
    <glyph glyph-name="e" unicode="e" horiz-adv-x="1188" 
d="M646 -22q-155 0 -280.5 76t-195 212.5t-69.5 306.5v48q0 175 68 315.5t189.5 221t262.5 80.5q221 0 351 -151.5t130 -412.5v-75h-867v-26q0 -207 118.5 -344.5t297.5 -137.5q108 0 190.5 39.5t150.5 125.5l84 -64q-148 -214 -430 -214zM621 1123q-152 0 -255.5 -111
t-126.5 -299h729v15q-6 175 -100 285t-247 110z" />
    <glyph glyph-name="f" unicode="f" horiz-adv-x="761" 
d="M272 0v1105h-201v110h201v147q0 187 95 287t264 100q77 0 143 -20l-10 -112q-56 14 -123 14q-111 0 -172.5 -69t-61.5 -196v-151h289v-110h-289v-1105h-135z" />
    <glyph glyph-name="g" unicode="g" horiz-adv-x="1276" 
d="M121 619q0 285 126.5 452t343.5 167q248 0 377 -198l7 175h126v-1190q0 -235 -131.5 -372t-356.5 -137q-127 0 -242 56.5t-181 151.5l75 81q143 -176 339 -176q169 0 263 99.5t98 275.5v153q-129 -179 -377 -179q-211 0 -339 168t-128 455v18zM257 595
q0 -232 93.5 -366.5t262.5 -134.5q248 0 352 223v565q-47 116 -136 177.5t-214 61.5q-169 0 -263.5 -133t-94.5 -393z" />
    <glyph glyph-name="h" unicode="h" horiz-adv-x="1262" 
d="M309 1010q66 109 169.5 168.5t225.5 59.5q196 0 291 -110.5t97 -330.5v-797h-134v798q-1 163 -69 243t-217 80q-125 0 -221 -78t-142 -211v-832h-134v1725h134v-715z" />
    <glyph glyph-name="i" unicode="i" horiz-adv-x="515" 
d="M326 0h-135v1215h135v-1215zM167 1567q0 38 25 64.5t68 26.5q42 0 67.5 -26.5t25.5 -64.5q0 -39 -25.5 -64.5t-67.5 -25.5q-43 0 -68 25.5t-25 64.5z" />
    <glyph glyph-name="j" unicode="j" horiz-adv-x="524" 
d="M320 1215v-1360q0 -168 -81 -257t-238 -89q-61 0 -118 22l2 111q50 -15 102 -15q199 0 199 230v1358h134zM254 1658q44 0 68.5 -26.5t24.5 -64.5q0 -39 -24.5 -64.5t-68.5 -25.5q-43 0 -67 25.5t-24 64.5q0 38 24 64.5t67 26.5z" />
    <glyph glyph-name="k" unicode="k" horiz-adv-x="1126" 
d="M464 612l-154 -148v-464h-135v1725h135v-1104l127 137l465 457h169l-515 -512l560 -703h-160z" />
    <glyph glyph-name="l" unicode="l" horiz-adv-x="515" 
d="M326 0h-135v1725h135v-1725z" />
    <glyph glyph-name="m" unicode="m" horiz-adv-x="2038" 
d="M298 1215l4 -198q67 111 168.5 166t224.5 55q288 0 365 -236q65 113 174 174.5t241 61.5q390 0 398 -427v-811h-135v801q-1 163 -70 241.5t-225 78.5q-145 -2 -245 -94t-111 -223v-804h-135v811q-1 156 -73.5 233t-222.5 77q-127 0 -218 -72.5t-135 -215.5v-833h-135
v1215h130z" />
    <glyph glyph-name="n" unicode="n" horiz-adv-x="1263" 
d="M303 1215l5 -208q68 113 170.5 172t225.5 59q196 0 291 -110.5t97 -330.5v-797h-134v798q-1 163 -69 243t-217 80q-125 0 -221 -78t-142 -211v-832h-134v1215h128z" />
    <glyph glyph-name="o" unicode="o" horiz-adv-x="1288" 
d="M101 626q0 175 68 315t192 218.5t281 78.5q243 0 393.5 -170.5t150.5 -450.5v-29q0 -176 -68 -317t-191.5 -217t-281.5 -76q-242 0 -393 170t-151 451v27zM236 588q0 -217 113 -357t296 -140q182 0 294.5 140t112.5 369v26q0 139 -51.5 254.5t-144.5 179t-214 63.5
q-179 0 -292.5 -141t-113.5 -369v-25z" />
    <glyph glyph-name="p" unicode="p" horiz-adv-x="1275" 
d="M1152 595q0 -284 -125.5 -450.5t-336.5 -166.5q-250 0 -382 175v-620h-134v1682h125l6 -172q132 195 381 195q218 0 342 -165.5t124 -458.5v-19zM1017 619q0 232 -95 367t-266 135q-124 0 -212.5 -59.5t-135.5 -173.5v-583q48 -104 138 -159t212 -55q170 0 264.5 135.5
t94.5 392.5z" />
    <glyph glyph-name="q" unicode="q" horiz-adv-x="1283" 
d="M121 619q0 285 126.5 452t345.5 167q246 0 374 -188l7 165h125v-1682h-134v617q-133 -172 -374 -172q-214 0 -342 168t-128 455v18zM257 595q0 -236 95 -370t263 -134q242 0 350 210v595q-51 109 -140 168t-207 59q-170 0 -265.5 -134t-95.5 -394z" />
    <glyph glyph-name="r" unicode="r" horiz-adv-x="774" 
d="M737 1101q-43 7 -91 7q-126 0 -213 -70t-124 -204v-834h-134v1215h132l2 -193q107 216 342 216q57 0 89 -15z" />
    <glyph glyph-name="s" unicode="s" horiz-adv-x="1165" 
d="M903 309q0 100 -80.5 160.5t-242 95t-251 78.5t-132.5 108t-43 155q0 144 120 238t308 94q203 0 326 -100.5t123 -262.5h-135q0 107 -89 177.5t-225 70.5q-133 0 -213 -59t-80 -153q0 -91 66.5 -141t243.5 -91.5t265 -89t131 -113.5t43 -160q0 -154 -124 -246t-324 -92
q-213 0 -345 102.5t-132 259.5h135q8 -118 99.5 -183.5t242.5 -65.5q140 0 226.5 62t86.5 156z" />
    <glyph glyph-name="t" unicode="t" horiz-adv-x="739" 
d="M384 1526v-311h252v-110h-252v-810q0 -101 36.5 -150.5t121.5 -49.5q34 0 109 12l6 -110q-53 -19 -144 -19q-138 0 -201 80t-63 236v811h-223v110h223v311h135z" />
    <glyph glyph-name="u" unicode="u" horiz-adv-x="1263" 
d="M957 154q-121 -176 -388 -176q-194 0 -295 112.5t-103 334.5v790h133v-774q0 -347 281 -347q292 0 370 242v879h134v-1215h-130z" />
    <glyph glyph-name="v" unicode="v" horiz-adv-x="1106" 
d="M554 185l369 1030h138l-453 -1215h-109l-456 1215h138z" />
    <glyph glyph-name="w" unicode="w" horiz-adv-x="1734" 
d="M466 280l20 -105l27 110l292 930h115l288 -922l32 -128l26 118l249 932h139l-354 -1215h-114l-312 964l-15 66l-14 -68l-307 -962h-115l-352 1215h138z" />
    <glyph glyph-name="x" unicode="x" horiz-adv-x="1119" 
d="M557 722l328 493h159l-412 -596l430 -619h-158l-346 514l-346 -514h-158l429 619l-412 596h158z" />
    <glyph glyph-name="y" unicode="y" horiz-adv-x="1093" 
d="M560 193l355 1022h145l-519 -1422l-27 -63q-100 -221 -308 -221q-49 0 -104 16l-1 111l70 -7q99 0 160 49t104 168l59 164l-458 1205h147z" />
    <glyph glyph-name="z" unicode="z" horiz-adv-x="1119" 
d="M264 113h789v-113h-955v99l736 1000h-714v116h884v-100z" />
    <glyph glyph-name="braceleft" unicode="{" horiz-adv-x="759" 
d="M715 -454q-188 56 -283.5 183t-95.5 337v248q0 296 -260 296v117q260 0 260 293v257q1 205 95.5 332t283.5 185l30 -89q-274 -88 -274 -439v-240q0 -276 -207 -358q207 -86 207 -357v-256q4 -328 277 -419z" />
    <glyph glyph-name="bar" unicode="|" horiz-adv-x="508" 
d="M313 -303h-113v1938h113v-1938z" />
    <glyph glyph-name="braceright" unicode="}" horiz-adv-x="759" 
d="M10 -364q273 91 278 419v252q0 284 216 360q-216 76 -216 358v240q0 354 -275 440l30 89q192 -58 285.5 -186.5t93.5 -337.5v-250q0 -293 260 -293v-117q-260 0 -260 -296v-248q0 -210 -95.5 -337t-283.5 -183z" />
    <glyph glyph-name="asciitilde" unicode="~" horiz-adv-x="1575" 
d="M1408 858q0 -167 -93.5 -275t-238.5 -108q-81 0 -151 31t-172.5 121.5t-152 113.5t-105.5 23q-100 0 -155.5 -66.5t-55.5 -192.5l-121 -1q0 168 91 274t241 106q83 0 158 -35t178 -127q75 -71 129 -99.5t116 -28.5q99 0 157.5 71t58.5 193h116z" />
    <glyph glyph-name="copyright" unicode="&#xa9;" horiz-adv-x="1838" 
d="M1259 682q0 -171 -92 -262t-260 -91q-169 0 -272 119t-103 322v101q0 196 103.5 315.5t271.5 119.5q167 0 260 -90.5t93 -260.5h-111q0 251 -243 251q-119 0 -190.5 -91t-71.5 -249v-102q0 -151 70.5 -242.5t191.5 -91.5q119 0 180.5 59.5t61.5 192.5h111zM216 819
q0 -198 91.5 -371t256.5 -274t354 -101q187 0 350 100t256.5 272.5t93.5 373.5q0 200 -93 371t-256.5 270.5t-350.5 99.5q-193 0 -358 -102t-254.5 -273t-89.5 -366zM120 819q0 227 105 421t291 306t402 112q215 0 400.5 -112t290.5 -306t105 -421q0 -222 -101 -415
t-287 -310.5t-408 -117.5t-407.5 116.5t-288 309.5t-102.5 417z" />
    <glyph glyph-name="guillemotleft" unicode="&#xab;" horiz-adv-x="1048" 
d="M800 99q-231 222 -231 499t231 499q21 20 50 19q28 0 48 -21t20 -49q-1 -29 -22 -49q-188 -181 -188 -399t188 -399q21 -20 22 -48q0 -29 -20 -50t-50 -21q-27 0 -48 19zM384 99q-231 222 -231 499t231 499q21 20 50 19q28 0 48 -21t19 -49q0 -29 -21 -49
q-189 -181 -189 -399t189 -399q21 -20 21 -48q1 -29 -19 -50t-50 -21q-28 0 -48 19z" />
    <glyph glyph-name="registered" unicode="&#xae;" horiz-adv-x="1844" 
d="M115 819q0 227 105 421t290.5 306t401.5 112t401.5 -112t290.5 -306t105 -421q0 -224 -102 -417t-288 -309.5t-407 -116.5t-407 116.5t-288 309.5t-102 417zM210 819q0 -201 94 -374t257 -272.5t351 -99.5q187 0 351 99.5t257 273t93 373.5q0 197 -91 368t-254.5 272
t-355.5 101q-189 0 -352.5 -99.5t-256.5 -270.5t-93 -371zM730 748v-388h-110v943h290q165 0 253.5 -69t88.5 -210q0 -149 -158 -221q81 -29 112.5 -90.5t31.5 -146.5t4.5 -123.5t14.5 -64.5v-18h-115q-16 41 -16 205q0 100 -42 141.5t-143 41.5h-211zM730 850h203
q91 0 150 47t59 125q0 95 -49 136t-168 44h-195v-352z" />
    <glyph glyph-name="guillemotright" unicode="&#xbb;" horiz-adv-x="1042" 
d="M222 80q-29 0 -50 21q-20 21 -19 50q1 28 21 48q189 181 189 399t-189 399q-20 20 -21 49q-1 28 19 49t49 21q28 1 49 -19q231 -222 231 -499t-231 -499q-20 -19 -48 -19zM638 80q-29 0 -50 21q-19 21 -19 50q1 28 22 48q188 181 188 399t-188 399q-21 20 -22 49
q0 28 20 49q19 21 48 21q29 1 49 -19q232 -222 232 -499q-1 -277 -232 -499q-20 -19 -48 -19z" />
    <glyph glyph-name="multiply" unicode="&#xd7;" horiz-adv-x="1204" 
d="M104 201l402 410l-385 393l89 90l384 -393l385 393l89 -90l-385 -393l402 -410l-89 -89l-402 409l-401 -409z" />
    <glyph glyph-name="divide" unicode="&#xf7;" horiz-adv-x="1307" 
d="M1202 723h-1121v131h1121v-131zM556 1222q0 39 24.5 66t69.5 27t71 -27t26 -66t-26 -65.5t-71 -26.5t-69.5 26.5t-24.5 65.5zM556 327q0 39 24.5 66t69.5 27t71 -27t26 -66t-26 -65t-71 -26t-69.5 26t-24.5 65z" />
    <glyph glyph-name="uni2000" unicode="&#x2000;" horiz-adv-x="1172" 
 />
    <glyph glyph-name="uni2001" unicode="&#x2001;" horiz-adv-x="2346" 
 />
    <glyph glyph-name="uni2002" unicode="&#x2002;" horiz-adv-x="1172" 
 />
    <glyph glyph-name="uni2003" unicode="&#x2003;" horiz-adv-x="2346" 
 />
    <glyph glyph-name="uni2004" unicode="&#x2004;" horiz-adv-x="783" 
 />
    <glyph glyph-name="uni2005" unicode="&#x2005;" horiz-adv-x="586" 
 />
    <glyph glyph-name="uni2006" unicode="&#x2006;" horiz-adv-x="391" 
 />
    <glyph glyph-name="uni2007" unicode="&#x2007;" horiz-adv-x="1293" 
 />
    <glyph glyph-name="uni2008" unicode="&#x2008;" horiz-adv-x="629" 
 />
    <glyph glyph-name="uni2009" unicode="&#x2009;" horiz-adv-x="469" 
 />
    <glyph glyph-name="uni200A" unicode="&#x200a;" horiz-adv-x="235" 
 />
    <glyph glyph-name="uni2010" unicode="&#x2010;" horiz-adv-x="649" 
d="M593 665h-538v113h538v-113z" />
    <glyph glyph-name="uni2011" unicode="&#x2011;" horiz-adv-x="649" 
d="M593 665h-538v113h538v-113z" />
    <glyph glyph-name="endash" unicode="&#x2013;" horiz-adv-x="1498" 
d="M1304 770h-1125v115h1125v-115z" />
    <glyph glyph-name="emdash" unicode="&#x2014;" horiz-adv-x="1774" 
d="M1641 770h-1501v115h1501v-115z" />
    <glyph glyph-name="quoteleft" unicode="&#x2018;" horiz-adv-x="409" 
d="M267 1745l81 -57q-101 -133 -104 -285v-144h-134v126q0 103 42 198.5t115 161.5z" />
    <glyph glyph-name="quoteright" unicode="&#x2019;" horiz-adv-x="409" 
d="M149 1234l-79 59q101 136 104 285v147h133v-113q0 -235 -158 -378z" />
    <glyph glyph-name="quotesinglbase" unicode="&#x201a;" horiz-adv-x="396" 
d="M126 -259l-80 58q93 125 102 258l1 173h134v-113q0 -234 -157 -376z" />
    <glyph glyph-name="quotereversed" unicode="&#x201b;" horiz-adv-x="409" 
d="M234 1725v-147q3 -149 104 -285l-81 -59q-157 145 -157 378v113h134z" />
    <glyph glyph-name="quotedblleft" unicode="&#x201c;" horiz-adv-x="687" 
d="M268 1745l81 -57q-101 -133 -104 -285v-144h-134v126q0 103 42 198.5t115 161.5zM550 1745l81 -57q-101 -133 -104 -285v-144h-134v126q0 103 42 198.5t115 161.5z" />
    <glyph glyph-name="quotedblright" unicode="&#x201d;" horiz-adv-x="693" 
d="M156 1234l-80 59q101 136 105 285v147h132v-113q0 -235 -157 -378zM430 1234l-80 59q101 136 105 285v147h132v-113q0 -235 -157 -378z" />
    <glyph glyph-name="quotedblbase" unicode="&#x201e;" horiz-adv-x="666" 
d="M126 -270l-80 59q100 138 103 293v183h134v-146q0 -244 -157 -389zM389 -270l-80 59q99 137 102 293v183h135v-146q0 -244 -157 -389z" />
    <glyph glyph-name="guilsinglleft" unicode="&#x2039;" horiz-adv-x="684" 
d="M261 623l310 -435h-118l-332 425v22l332 425h118z" />
    <glyph glyph-name="guilsinglright" unicode="&#x203a;" horiz-adv-x="684" 
d="M228 1060l331 -431v-21l-331 -426h-119l310 436l-310 442h119z" />
    </font>
</defs>
</svg>
